<?xml version="1.0" standalone="no"?>
<!DOCTYPE svg PUBLIC "-//W3C//DTD SVG 1.1//EN" "http://www.w3.org/Graphics/SVG/1.1/DTD/svg11.dtd" >
<svg>
<metadata>
Created by FontForge 20090622 at Sun May 29 14:18:48 2016
 By deploy user
Copyright (c) 2009 by Hannes von Doehren. All rights reserved.
</metadata>
<defs>
<font id="BrandonGrotesque-Regular" horiz-adv-x="482" >
  <font-face 
    font-family="Brandon Grotesque"
    font-weight="390"
    font-stretch="normal"
    units-per-em="1000"
    panose-1="2 11 5 3 2 2 3 6 2 2"
    ascent="700"
    descent="-300"
    x-height="400"
    cap-height="700"
    bbox="-129.381 -373.545 1031 1031.56"
    underline-thickness="50"
    underline-position="-50"
    unicode-range="U+0020-U+FB02"
  />
<missing-glyph horiz-adv-x="599" 
d="M50 30v640q0 30 30 30h439q30 0 30 -30v-640q0 -30 -30 -30h-439q-30 0 -30 30zM262 314q0 -12 14 -12h36q15 0 15 13v26q0 16 16.5 32t36 28.5t36 36.5t16.5 53q0 48 -35.5 79.5t-89.5 31.5q-24 0 -46.5 -6.5t-37 -15t-25.5 -17.5t-16 -15l-5 -7q-8 -12 0 -18l22 -22
q9 -6 17 0q1 1 7.5 7t9.5 9t11.5 8.5t15.5 8.5t18 5.5t22 2.5q29 0 45 -15t16 -37q0 -21 -15.5 -39t-34 -30t-34 -32.5t-15.5 -45.5v-29zM245 156q0 -20 14.5 -34t33.5 -14q20 0 34.5 14t14.5 34t-14.5 34t-34.5 14q-19 0 -33.5 -14t-14.5 -34z" />
    <glyph glyph-name="fi" unicode="fi" horiz-adv-x="527" 
d="M103 19v321h-61q-8 0 -13.5 5.5t-5.5 13.5v22q0 19 19 19h61v140q0 83 47 126.5t116 43.5q44 0 85 -16t62 -31q12 -9 4 -23l-16 -27q-7 -11 -26 -1q-67 36 -110 36q-38 0 -65.5 -27t-27.5 -81v-140h265q7 0 13 -6t6 -13v-362q0 -7 -6 -13t-13 -6h-31q-8 0 -13.5 6
t-5.5 13v321h-215v-321q0 -7 -6 -13t-13 -6h-31q-8 0 -13.5 6t-5.5 13z" />
    <glyph glyph-name="fl" unicode="fl" horiz-adv-x="530" 
d="M103 19v321h-61q-8 0 -13.5 5.5t-5.5 13.5v22q0 19 19 19h61v140q0 83 46.5 126.5t115.5 43.5q37 0 69.5 -13t46.5 -25l14 -13l8 25q5 16 19 16h17q7 0 13 -6t6 -13v-662q0 -7 -6 -13t-13 -6h-31q-8 0 -13.5 6t-5.5 13v561q-5 7 -14 17.5t-40 28t-65 17.5q-40 0 -69 -25
t-29 -78v-140h116q19 0 19 -19v-22q0 -8 -5.5 -13.5t-13.5 -5.5h-116v-321q0 -7 -6 -13t-13 -6h-31q-8 0 -13.5 6t-5.5 13z" />
    <glyph glyph-name="f_f" unicode="ff" horiz-adv-x="594" 
d="M103 19v321h-61q-8 0 -13.5 5.5t-5.5 13.5v22q0 19 19 19h61v113q0 94 52 140.5t131 46.5q72 0 129 -39q42 49 115 49q67 0 110 -41q12 -10 4 -23l-16 -26q-9 -15 -26 -1q-38 29 -73 29q-37 0 -60 -26.5t-23 -81.5v-140h116q19 0 19 -19v-22q0 -8 -5.5 -13.5t-13.5 -5.5
h-116v-321q0 -7 -6 -13t-13 -6h-31q-8 0 -13.5 6t-5.5 13v321h-205v-321q0 -7 -6 -13t-13 -6h-31q-8 0 -13.5 6t-5.5 13zM172 400h205v140q0 36 7 61q-12 13 -40.5 25t-58.5 12q-48 0 -80.5 -30t-32.5 -95v-113z" />
    <glyph glyph-name="f_f_i" unicode="ffi" horiz-adv-x="801" 
d="M103 19v321h-61q-8 0 -13.5 5.5t-5.5 13.5v22q0 19 19 19h61v113q1 93 52 140t131 47q72 0 129 -39q42 49 123 49q45 0 86.5 -16t62.5 -31q12 -9 4 -23l-16 -27q-7 -11 -26 -1q-67 36 -110 36q-39 0 -66 -27.5t-27 -81.5v-139h265q7 0 13 -6t6 -13v-362q0 -7 -6 -13
t-13 -6h-31q-8 0 -13.5 6t-5.5 13v321h-215v-321q0 -7 -6 -13t-13 -6h-31q-8 0 -13.5 6t-5.5 13v321h-205v-321q0 -7 -6 -13t-13 -6h-31q-8 0 -13.5 6t-5.5 13zM172 400h205v140q0 36 7 61q-12 13 -40.5 25t-58.5 12q-48 0 -80.5 -30t-32.5 -95v-113z" />
    <glyph glyph-name="f_f_l" unicode="ffl" horiz-adv-x="804" 
d="M103 19v321h-61q-8 0 -13.5 5.5t-5.5 13.5v22q0 19 19 19h61v113q0 94 52 140.5t131 46.5q72 0 129 -39q42 49 126 49q36 0 68 -13t46 -25l14 -13l8 25q5 16 19 16h17q7 0 13 -6t6 -13v-662q0 -7 -6 -13t-13 -6h-31q-8 0 -13.5 6t-5.5 13v561q-5 7 -14 17.5t-40 28
t-65 17.5q-40 0 -69 -25t-29 -78v-140h116q19 0 19 -19v-22q0 -8 -5.5 -13.5t-13.5 -5.5h-116v-321q0 -7 -6 -13t-13 -6h-31q-8 0 -13.5 6t-5.5 13v321h-205v-321q0 -7 -6 -13t-13 -6h-31q-8 0 -13.5 6t-5.5 13zM172 400h205v140q0 36 7 61q-12 13 -40.5 25t-58.5 12
q-48 0 -80.5 -30t-32.5 -95v-113z" />
    <glyph glyph-name="f_f_h" unicode="ffh" horiz-adv-x="1087" 
d="M103 19v321h-61q-8 0 -13.5 5.5t-5.5 13.5v22q0 19 19 19h61v113q0 94 52 140.5t131 46.5q72 0 129 -39q42 49 126 49q36 0 68 -13t46 -25l14 -13l8 25q5 16 19 16h17q7 0 13 -6t6 -13v-324q6 6 17 15t46 23.5t71 14.5q155 0 155 -180v-211q0 -7 -5.5 -13t-13.5 -6h-32
q-8 0 -13.5 6t-5.5 13v211q0 56 -23.5 84.5t-66.5 28.5q-21 0 -42 -6t-36 -14t-27 -16.5t-18 -14.5l-6 -5v-268q0 -7 -6 -13t-13 -6h-31q-8 0 -13.5 6t-5.5 13v561q-5 7 -14 17.5t-40 28t-65 17.5q-40 0 -69 -25t-29 -78v-140h116q19 0 19 -19v-22q0 -8 -5.5 -13.5
t-13.5 -5.5h-116v-321q0 -7 -6 -13t-13 -6h-31q-8 0 -13.5 6t-5.5 13v321h-205v-321q0 -7 -6 -13t-13 -6h-31q-8 0 -13.5 6t-5.5 13zM172 400h205v140q0 36 7 61q-12 13 -40.5 25t-58.5 12q-48 0 -80.5 -30t-32.5 -95v-113z" />
    <glyph glyph-name="f_k" unicode="fk" horiz-adv-x="765" 
d="M103 19v321h-61q-8 0 -13.5 5.5t-5.5 13.5v22q0 19 19 19h61v140q0 83 46.5 126.5t115.5 43.5q37 0 69.5 -13t46.5 -25l14 -13l8 25q5 16 19 16h17q7 0 13 -6t6 -13v-433l174 140q14 12 24 12h50q12 0 13.5 -10t-4.5 -15l-185 -151l216 -199q7 -5 4.5 -15t-14.5 -10h-55
q-9 0 -20 8l-203 193v-182q0 -7 -6 -13t-13 -6h-31q-8 0 -13.5 6t-5.5 13v561q-5 7 -14 17.5t-40 28t-65 17.5q-40 0 -69 -25t-29 -78v-140h116q19 0 19 -19v-22q0 -8 -5.5 -13.5t-13.5 -5.5h-116v-321q0 -7 -6 -13t-13 -6h-31q-8 0 -13.5 6t-5.5 13z" />
    <glyph glyph-name="f_j" unicode="fj" horiz-adv-x="528" 
d="M103 19v321h-61q-8 0 -13.5 5.5t-5.5 13.5v22q0 19 19 19h61v140q0 83 47 126.5t116 43.5q44 0 85 -16t62 -31q12 -9 4 -23l-16 -27q-7 -11 -26 -1q-67 36 -110 36q-38 0 -65.5 -27t-27.5 -81v-140h265q7 0 13 -6t6 -13v-521q0 -83 -42.5 -126.5t-110.5 -43.5
q-67 0 -110 41q-12 10 -4 23l16 26q9 15 26 1q38 -29 73 -29q37 0 60 26.5t23 81.5v480h-215v-321q0 -7 -6 -13t-13 -6h-31q-8 0 -13.5 6t-5.5 13z" />
    <glyph glyph-name="f_f_j" unicode="ffj" horiz-adv-x="802" 
d="M103 19v321h-61q-8 0 -13.5 5.5t-5.5 13.5v22q0 19 19 19h61v113q0 93 51.5 140t131.5 47q72 0 129 -39q42 49 123 49q45 0 86.5 -16t62.5 -31q12 -9 4 -23l-16 -27q-7 -11 -26 -1q-67 36 -110 36q-52 0 -72.5 -34.5t-20.5 -109.5v-104h265q7 0 13 -6t6 -13v-521
q0 -83 -42.5 -126.5t-110.5 -43.5q-67 0 -110 41q-12 10 -4 23l16 26q9 15 26 1q38 -29 73 -29q37 0 60 26.5t23 81.5v480h-215v-321q0 -7 -6 -13t-13 -6h-31q-8 0 -13.5 6t-5.5 13v321h-205v-321q0 -7 -6 -13t-13 -6h-31q-8 0 -13.5 6t-5.5 13zM172 400h205v118q0 58 7 83
q-12 13 -40.5 25t-58.5 12q-48 0 -80.5 -30t-32.5 -95v-113z" />
    <glyph glyph-name="f_b" unicode="fb" horiz-adv-x="799" 
d="M103 19v321h-61q-8 0 -13.5 5.5t-5.5 13.5v22q0 19 19 19h61v140q0 83 46.5 126.5t115.5 43.5q37 0 69.5 -13t46.5 -25l14 -13l8 25q5 16 19 16h17q7 0 13 -6t6 -13v-297q41 26 107 26q85 0 138.5 -60t53.5 -149q0 -87 -53 -149t-129 -62q-33 0 -64 13t-45 27l-14 13
q-1 -3 -2.5 -10.5t-2.5 -12t-3.5 -10t-6 -8t-8.5 -2.5h-21q-8 0 -13.5 6t-5.5 13v561q-5 7 -14 17.5t-40 28t-65 17.5q-40 0 -69 -25t-29 -78v-140h116q19 0 19 -19v-22q0 -8 -5.5 -13.5t-13.5 -5.5h-116v-321q0 -7 -6 -13t-13 -6h-31q-8 0 -13.5 6t-5.5 13zM459 119
q4 -7 12 -18t36.5 -29.5t60.5 -18.5q53 0 86 43t33 104q0 62 -35.5 102.5t-95.5 40.5q-24 0 -48.5 -6t-36.5 -12l-12 -6v-200z" />
    <glyph glyph-name="f_f_k" unicode="ffk" horiz-adv-x="1039" 
d="M103 19v321h-61q-8 0 -13.5 5.5t-5.5 13.5v22q0 19 19 19h61v113q0 94 52 140.5t131 46.5q72 0 129 -39q42 49 126 49q36 0 68 -13t46 -25l14 -13l8 25q5 16 19 16h17q7 0 13 -6t6 -13v-433l174 140q14 12 24 12h50q12 0 13.5 -10t-4.5 -15l-185 -151l216 -199
q7 -5 4.5 -15t-14.5 -10h-55q-9 0 -20 8l-203 193v-182q0 -7 -6 -13t-13 -6h-31q-8 0 -13.5 6t-5.5 13v561q-5 7 -14 17.5t-40 28t-65 17.5q-40 0 -69 -25t-29 -78v-140h116q19 0 19 -19v-22q0 -8 -5.5 -13.5t-13.5 -5.5h-116v-321q0 -7 -6 -13t-13 -6h-31q-8 0 -13.5 6
t-5.5 13v321h-205v-321q0 -7 -6 -13t-13 -6h-31q-8 0 -13.5 6t-5.5 13zM172 400h205v140q0 36 7 61q-12 13 -40.5 25t-58.5 12q-48 0 -80.5 -30t-32.5 -95v-113z" />
    <glyph glyph-name="f_h" unicode="fh" horiz-adv-x="814" 
d="M103 19v321h-61q-8 0 -13.5 5.5t-5.5 13.5v22q0 19 19 19h61v140q0 83 46.5 126.5t115.5 43.5q37 0 69.5 -13t46.5 -25l14 -13l8 25q5 16 19 16h17q7 0 13 -6t6 -13v-324q6 6 17 15t46 23.5t71 14.5q84 0 119.5 -53t35.5 -162v-176q0 -7 -5.5 -13t-13.5 -6h-32
q-8 0 -13.5 6t-5.5 13v211q0 56 -23.5 84.5t-66.5 28.5q-21 0 -42 -6t-36 -14t-27 -16.5t-18 -14.5l-6 -5v-38v-230q0 -7 -6 -13t-13 -6h-31q-8 0 -13.5 6t-5.5 13v561q-5 7 -14 17.5t-40 28t-65 17.5q-40 0 -69 -25t-29 -78v-140h116q19 0 19 -19v-22q0 -8 -5.5 -13.5
t-13.5 -5.5h-116v-321q0 -7 -6 -13t-13 -6h-31q-8 0 -13.5 6t-5.5 13z" />
    <glyph glyph-name="f_f_b" unicode="ffb" horiz-adv-x="1073" 
d="M103 19v321h-61q-8 0 -13.5 5.5t-5.5 13.5v22q0 19 19 19h61v113q0 94 52 140.5t131 46.5q72 0 129 -39q42 49 126 49q36 0 68 -13t46 -25l14 -13l8 25q5 16 19 16h17q7 0 13 -6t6 -13v-297q41 26 107 26q85 0 138.5 -60t53.5 -149q0 -87 -53 -149t-129 -62q-33 0 -64 13
t-45 27l-14 13q-1 -3 -2.5 -10.5t-2.5 -12t-3.5 -10t-6 -8t-8.5 -2.5h-21q-8 0 -13.5 6t-5.5 13v561q-5 7 -14 17.5t-40 28t-65 17.5q-40 0 -69 -25t-29 -78v-140h116q19 0 19 -19v-22q0 -8 -5.5 -13.5t-13.5 -5.5h-116v-321q0 -7 -6 -13t-13 -6h-31q-8 0 -13.5 6t-5.5 13
v321h-205v-321q0 -7 -6 -13t-13 -6h-31q-8 0 -13.5 6t-5.5 13zM172 400h205v140q0 36 7 61q-12 13 -40.5 25t-58.5 12q-48 0 -80.5 -30t-32.5 -95v-113zM733 119q4 -7 12 -18t36.5 -29.5t60.5 -18.5q53 0 86 43t33 104q0 62 -35.5 102.5t-95.5 40.5q-24 0 -48.5 -6
t-36.5 -12l-12 -6v-200z" />
    <glyph glyph-name=".notdef" horiz-adv-x="599" 
d="M50 30v640q0 30 30 30h439q30 0 30 -30v-640q0 -30 -30 -30h-439q-30 0 -30 30zM262 314q0 -12 14 -12h36q15 0 15 13v26q0 16 16.5 32t36 28.5t36 36.5t16.5 53q0 48 -35.5 79.5t-89.5 31.5q-24 0 -46.5 -6.5t-37 -15t-25.5 -17.5t-16 -15l-5 -7q-8 -12 0 -18l22 -22
q9 -6 17 0q1 1 7.5 7t9.5 9t11.5 8.5t15.5 8.5t18 5.5t22 2.5q29 0 45 -15t16 -37q0 -21 -15.5 -39t-34 -30t-34 -32.5t-15.5 -45.5v-29zM245 156q0 -20 14.5 -34t33.5 -14q20 0 34.5 14t14.5 34t-14.5 34t-34.5 14q-19 0 -33.5 -14t-14.5 -34z" />
    <glyph glyph-name=".null" horiz-adv-x="0" 
 />
    <glyph glyph-name="nonmarkingreturn" horiz-adv-x="333" 
 />
    <glyph glyph-name="space" unicode=" " horiz-adv-x="222" 
 />
    <glyph glyph-name="exclam" unicode="!" horiz-adv-x="298" 
d="M143 272q-7 0 -12.5 5t-6.5 11l-19 279v114q0 7 5.5 13t13.5 6h50q8 0 13.5 -6t5.5 -13v-112l-19 -281q-1 -6 -6.5 -11t-12.5 -5h-12zM92 47q0 24 17 40.5t40 16.5q24 0 40.5 -16.5t16.5 -40.5q0 -23 -16.5 -40t-40.5 -17q-23 0 -40 17t-17 40z" />
    <glyph glyph-name="quotedbl" unicode="&#x22;" horiz-adv-x="307" 
d="M219 501q-7 0 -13 5.5t-6 13.5v161q0 7 6 13t13 6h34q10 0 15.5 -7.5t2.5 -17.5l-28 -159q-4 -15 -18 -15h-6zM68 501q-8 0 -13.5 5.5t-5.5 13.5v161q0 7 5.5 13t13.5 6h34q10 0 15.5 -7.5t2.5 -17.5l-28 -159q-4 -15 -18 -15h-6z" />
    <glyph glyph-name="numbersign" unicode="#" horiz-adv-x="542" 
d="M106 22l25 173h-70q-8 0 -13.5 5.5t-5.5 13.5v7q0 19 19 19h77l24 171h-72q-8 0 -13.5 5.5t-5.5 13.5v7q0 7 5.5 13t13.5 6h78l32 228q1 6 6 11t12 5h7q8 0 13.5 -6.5t4.5 -15.5l-30 -222h151l31 228q1 6 6.5 11t12.5 5h6q9 0 14.5 -6.5t4.5 -15.5l-30 -222h70
q8 0 13.5 -5.5t5.5 -13.5v-7q0 -19 -17 -19h-78l-24 -171h71q8 0 13.5 -5.5t5.5 -13.5v-7q0 -8 -5 -13.5t-12 -5.5h-80l-26 -179q-2 -16 -19 -16h-6q-9 0 -14.5 6.5t-4.5 15.5l26 173h-153l-25 -179q-2 -16 -19 -16h-6q-10 0 -15.5 6.5t-3.5 15.5zM182 240h153l23 171h-151z
" />
    <glyph glyph-name="dollar" unicode="$" horiz-adv-x="524" 
d="M58 71q-18 15 -6 34q3 3 9 11.5t9.5 12t9 7.5t11 3t11.5 -6q9 -9 22.5 -20.5t49.5 -30t70 -23.5v260q-87 35 -133 74.5t-55 102.5q-2 11 -2 36q0 35 18 72t63 68.5t109 36.5v32q0 8 5.5 13.5t13.5 5.5h7q8 0 13 -5.5t5 -13.5v-32q39 -3 76.5 -15.5t55.5 -23.5l18 -11
q7 -3 10 -11t-4 -23l-6 -9t-5.5 -8.5t-4.5 -6.5t-5 -5t-5 -3t-6 -1.5t-7 1.5t-8 4l-8 5q-8 4 -18 9.5t-23 11.5t-29 11t-31 7l-1 -259q50 -21 83 -40t61 -44t41 -56.5t13 -71.5q0 -73 -58 -123.5t-140 -55.5v-104q0 -18 -22 -18q-21 0 -21 18v104q-47 4 -92.5 23.5t-63 32
t-30.5 24.5zM244 400v242q-58 -6 -87 -39.5t-29 -69.5q0 -44 29 -75.5t87 -57.5zM287 58q50 4 84 36t34 73t-28.5 71.5t-89.5 60.5v-241z" />
    <glyph glyph-name="percent" unicode="%" horiz-adv-x="675" 
d="M170 441q-56 0 -95.5 39.5t-39.5 95.5t39.5 95.5t95.5 39.5t95.5 -39.5t39.5 -95.5t-39.5 -95.5t-95.5 -39.5zM128 27l343 663q6 10 17 10h16q11 0 16.5 -8.5t0.5 -18.5l-345 -663q-5 -10 -17 -10h-14q-11 0 -16.5 8.5t-0.5 18.5zM170 498q31 0 53.5 22.5t22.5 55.5
q0 31 -22.5 53.5t-53.5 22.5q-33 0 -55.5 -22.5t-22.5 -53.5q0 -33 22.5 -55.5t55.5 -22.5zM351 124q0 56 39.5 95.5t95.5 39.5t95.5 -39.5t39.5 -95.5t-39.5 -95.5t-95.5 -39.5t-95.5 39.5t-39.5 95.5zM408 124q0 -33 22.5 -55.5t55.5 -22.5q31 0 53.5 22.5t22.5 55.5
q0 31 -22.5 53.5t-53.5 22.5q-33 0 -55.5 -22.5t-22.5 -53.5z" />
    <glyph glyph-name="ampersand" unicode="&#x26;" horiz-adv-x="666" 
d="M82 174q0 118 139 200v2l-24 26q-72 76 -70 146q0 64 46 113t131 49q78 0 123.5 -44.5t45.5 -109.5q0 -100 -148 -192l165 -165q40 82 40 178q0 15 5 19t18 4h24q7 0 11.5 -2t6 -7.5t1.5 -6v-7.5q0 -120 -59 -225l96 -96q11 -12 12 -19.5t-13 -26.5l-12 -11
q-21 -19 -42 3l-85 88q-89 -100 -218 -100q-91 0 -142 53t-51 131zM280 410q26 16 39.5 25t37 29t35 42.5t11.5 47.5q0 39 -28.5 68t-76.5 29t-76 -30t-28 -75q-1 -30 15 -56t49 -58zM152 173q0 -52 36.5 -86.5t89.5 -34.5q101 0 171 85l-185 194q-112 -68 -112 -158z" />
    <glyph glyph-name="quotesingle" unicode="'" horiz-adv-x="156" 
d="M68 501q-8 0 -13.5 5.5t-5.5 13.5v161q0 7 5.5 13t13.5 6h34q10 0 15.5 -7.5t2.5 -17.5l-28 -159q-4 -15 -18 -15h-6z" />
    <glyph glyph-name="parenleft" unicode="(" horiz-adv-x="344" 
d="M294 -78q-46 2 -85.5 23t-74.5 64.5t-55.5 121.5t-20.5 184t20.5 184t55.5 121.5t74.5 64.5t85.5 23q17 2 18 -10l2 -27q3 -15 -10 -17q-92 -18 -134 -103t-42 -236t42 -236t134 -103q13 -2 10 -17l-2 -27q-1 -12 -18 -10z" />
    <glyph glyph-name="parenright" unicode=")" horiz-adv-x="344" 
d="M40 -24q92 18 134 103t42 236t-42 236t-134 103q-13 2 -10 17l2 27q1 12 18 10q46 -2 85.5 -23t74.5 -64.5t55.5 -121.5t20.5 -184t-20.5 -184t-55.5 -121.5t-74.5 -64.5t-85.5 -23q-17 -2 -18 10l-2 27q-3 15 10 17z" />
    <glyph glyph-name="asterisk" unicode="*" horiz-adv-x="328" 
d="M157 415q-7 0 -13 5.5t-6 13.5l2 82l-67 -48q-6 -4 -14 -2.5t-12 8.5l-7 10q-10 16 5 27l75 47l-77 47q-14 11 -5 26l8 11q4 6 11.5 8t13.5 -2l69 -49l-2 83q0 7 5.5 12.5t13.5 5.5h13q8 0 13.5 -5.5t5.5 -12.5l-2 -82l67 50q15 8 26 -6l7 -11q9 -17 -5 -26l-77 -49
l78 -49q16 -10 6 -26l-7 -11q-10 -15 -27 -6l-68 49l2 -81q0 -8 -5.5 -13.5t-13.5 -5.5h-13z" />
    <glyph glyph-name="plus" unicode="+" horiz-adv-x="501" 
d="M217 157v157h-157q-8 0 -13.5 6t-5.5 13v28q0 7 5.5 13t13.5 6h157v158q0 7 5.5 12.5t13.5 5.5h28q8 0 13.5 -5.5t5.5 -12.5v-158h158q7 0 12.5 -5.5t5.5 -13.5v-28q0 -8 -5.5 -13.5t-12.5 -5.5h-158v-157q0 -7 -5.5 -12.5t-13.5 -5.5h-28q-8 0 -13.5 5.5t-5.5 12.5z" />
    <glyph glyph-name="comma" unicode="," horiz-adv-x="233" 
d="M55 47q0 24 17 40.5t40 16.5q66 0 66 -90q0 -56 -26.5 -106t-57.5 -79q-14 -12 -24 -2l-14 14q-10 10 6 24q62 56 62 126q-4 -1 -12 -1q-23 0 -40 17t-17 40z" />
    <glyph glyph-name="hyphen" unicode="-" horiz-adv-x="413" 
d="M102 220q-8 0 -13.5 5t-5.5 13v19q0 19 19 19h209q19 0 19 -19v-19q0 -8 -5.5 -13t-13.5 -5h-209z" />
    <glyph glyph-name="period" unicode="." horiz-adv-x="226" 
d="M56 47q0 24 17 40.5t40 16.5q24 0 40.5 -16.5t16.5 -40.5q0 -23 -16.5 -40t-40.5 -17q-23 0 -40 17t-17 40z" />
    <glyph glyph-name="slash" unicode="/" horiz-adv-x="320" 
d="M40 25l196 662q4 13 18 13h22q11 0 16 -7.5t2 -17.5l-195 -662q-4 -13 -18 -13h-23q-10 0 -15.5 7.5t-2.5 17.5z" />
    <glyph glyph-name="zero" unicode="0" horiz-adv-x="632" 
d="M316 -10q-116 0 -179.5 92.5t-63.5 257.5t63.5 257.5t179.5 92.5t179.5 -92.5t63.5 -257.5t-63.5 -257.5t-179.5 -92.5zM316 55q83 0 127.5 74t44.5 211q0 136 -45 210.5t-127 74.5t-127 -74.5t-45 -210.5q0 -137 44.5 -211t127.5 -74z" />
    <glyph glyph-name="one" unicode="1" horiz-adv-x="326" 
d="M149 19v537l-72 -56q-13 -10 -23 1l-19 21q-9 11 2 22l140 136h27q7 0 12.5 -5.5t5.5 -13.5v-642q0 -8 -5.5 -13.5t-12.5 -5.5h-36q-8 0 -13.5 5.5t-5.5 13.5z" />
    <glyph glyph-name="two" unicode="2" horiz-adv-x="519" 
d="M42 19v30l245 265q101 110 101 181q0 50 -34.5 88.5t-105.5 38.5q-72 0 -142 -75q-14 -13 -27 0l-20 19q-12 14 -1 26q3 4 8.5 10.5t24 23.5t39 30t53 23.5t65.5 10.5q102 0 159 -56t57 -137q0 -60 -31 -109.5t-94 -117.5l-192 -205h294q7 0 13 -5.5t6 -13.5v-27
q0 -7 -6 -13t-13 -6h-380q-8 0 -13.5 5.5t-5.5 13.5z" />
    <glyph glyph-name="three" unicode="3" horiz-adv-x="532" 
d="M47 79q-12 14 1 24l27 23q15 11 27 -5q9 -11 23.5 -23.5t50.5 -29t75 -16.5q60 0 102 34t42 91q0 56 -44.5 93.5t-132.5 37.5h-56q-19 0 -19 22v24q0 22 21 22h55q77 0 118 34.5t41 86.5q0 58 -38 92.5t-93 34.5q-74 0 -131 -65q-12 -14 -26 -2l-24 19q-14 12 0 26
q3 4 8.5 9.5t24 21t38 27t49.5 21t61 9.5q92 0 149 -50t57 -133q0 -53 -32 -96.5t-71 -61.5v-3q45 -19 82.5 -61.5t37.5 -100.5q0 -84 -60.5 -139t-161.5 -55q-123 0 -201 89z" />
    <glyph glyph-name="four" unicode="4" horiz-adv-x="586" 
d="M35 154q-8 0 -13.5 5.5t-5.5 13.5v37l379 475q6 6 15 6h20q8 0 13.5 -5.5t5.5 -13.5l1 -457h81q8 0 13.5 -5t5.5 -13v-22q0 -8 -5.5 -13.5t-13.5 -5.5h-81v-137q0 -7 -6 -13t-13 -6h-34q-7 0 -13 6t-6 13v135h-343zM100 216h282v348z" />
    <glyph glyph-name="five" unicode="5" horiz-adv-x="533" 
d="M67 73q-17 19 -2 34l11.5 11l11.5 11q15 13 25 -1q9 -13 22.5 -26.5t49 -30.5t76.5 -17q69 0 113 50.5t44 113.5q0 62 -40.5 103t-116.5 41h-152q-14 0 -22.5 11t-8.5 24v264q0 8 5.5 13.5t13.5 5.5h302q8 0 13.5 -5.5t5.5 -13.5v-29q0 -8 -5.5 -13.5t-13.5 -5.5h-254
v-184h116q112 0 171.5 -55.5t59.5 -154.5q0 -95 -66 -162t-166 -67q-124 0 -193 83z" />
    <glyph glyph-name="six" unicode="6" horiz-adv-x="543" 
d="M53 275q0 76 25 143t61 111.5t84.5 82t85 57t73.5 34.5q15 6 22 -10l11 -24q9 -21 -18 -29q-15 -5 -40.5 -18.5t-59.5 -37t-64.5 -51.5t-56.5 -66t-36 -76q7 5 20.5 12.5t53.5 20t78 12.5q88 0 151.5 -60t63.5 -157q0 -94 -65.5 -161.5t-155.5 -67.5q-116 0 -174.5 79
t-58.5 206zM286 56q63 0 106.5 47t43.5 112t-44 110.5t-107 45.5q-41 0 -80.5 -16.5t-58.5 -32.5l-19 -16q-9 -38 -1.5 -81.5t23.5 -81t52 -62.5t85 -25z" />
    <glyph glyph-name="seven" unicode="7" horiz-adv-x="474" 
d="M91 19v11l279 583h-327q-7 0 -13 5.5t-6 13.5v29q0 7 6 13t13 6h402q7 0 13 -6t6 -13v-7l-292 -628q-12 -26 -33 -26h-29q-8 0 -13.5 6t-5.5 13z" />
    <glyph glyph-name="eight" unicode="8" horiz-adv-x="573" 
d="M62 183q0 58 38.5 103t82.5 64v3q-40 18 -71.5 59.5t-31.5 94.5q0 82 58 132.5t148 50.5q91 0 149.5 -50.5t58.5 -132.5q0 -53 -31.5 -94.5t-71.5 -59.5v-3q44 -19 82.5 -64t38.5 -103q0 -84 -61.5 -138.5t-165.5 -54.5q-101 0 -162 54.5t-61 138.5zM287 385
q66 7 99.5 38.5t33.5 80.5q0 56 -38.5 91t-98.5 35q-55 0 -92 -35.5t-37 -90.5q0 -49 33 -81t100 -38zM137 176q0 -56 43.5 -91t104.5 -35q66 0 109 34t43 92q0 49 -41 88.5t-109 46.5q-69 -7 -109.5 -46.5t-40.5 -88.5z" />
    <glyph glyph-name="nine" unicode="9" horiz-adv-x="543" 
d="M128 17q-9 21 18 29q15 5 40.5 18.5t59.5 37t64.5 51.5t56.5 66t36 76q-7 -5 -20.5 -12.5t-53.5 -20t-78 -12.5q-88 0 -151.5 60t-63.5 157q0 94 65.5 161.5t155.5 67.5q116 0 174.5 -79t58.5 -206q0 -76 -25 -143t-61 -111.5t-84.5 -82t-85 -57t-73.5 -34.5
q-15 -6 -22 10zM258 315q41 0 80.5 16.5t58.5 32.5l19 16q9 38 1.5 81.5t-23.5 81t-52 62.5t-85 25q-63 0 -106.5 -47t-43.5 -112t44 -110.5t107 -45.5z" />
    <glyph glyph-name="colon" unicode=":" horiz-adv-x="256" 
d="M128 296q-23 0 -40 17t-17 40q0 24 17 40.5t40 16.5q24 0 40.5 -16.5t16.5 -40.5q0 -23 -16.5 -40t-40.5 -17zM71 47q0 24 17 40.5t40 16.5q24 0 40.5 -16.5t16.5 -40.5q0 -23 -16.5 -40t-40.5 -17q-23 0 -40 17t-17 40z" />
    <glyph glyph-name="semicolon" unicode=";" horiz-adv-x="259" 
d="M127 296q-23 0 -40 17t-17 40q0 24 17 40.5t40 16.5q24 0 40.5 -16.5t16.5 -40.5q0 -23 -16.5 -40t-40.5 -17zM70 47q0 24 17 40.5t40 16.5q66 0 66 -90q0 -56 -26.5 -106t-57.5 -79q-14 -12 -24 -2l-14 14q-10 10 6 24q62 56 62 126q-4 -1 -12 -1q-23 0 -40 17t-17 40z
" />
    <glyph glyph-name="less" unicode="&#x3c;" horiz-adv-x="439" 
d="M35 210q-10 6 -10 17v5q0 11 10 17l340 212q10 6 19 1t9 -17v-36q0 -12 -11 -19l-261 -160l261 -154q11 -7 11 -19v-36q0 -12 -9 -17t-19 1z" />
    <glyph glyph-name="equal" unicode="=" horiz-adv-x="510" 
d="M105 351q-8 0 -13.5 5.5t-5.5 13.5v30q0 8 5.5 13.5t13.5 5.5h299q8 0 13.5 -5.5t5.5 -13.5v-30q0 -8 -5.5 -13.5t-13.5 -5.5h-299zM105 140q-8 0 -13.5 5.5t-5.5 13.5v31q0 8 5.5 13.5t13.5 5.5h299q8 0 13.5 -5.5t5.5 -13.5v-31q0 -8 -5.5 -13.5t-13.5 -5.5h-299z" />
    <glyph glyph-name="greater" unicode="&#x3e;" horiz-adv-x="439" 
d="M36 21v36q0 13 11 19l261 154l-261 160q-11 7 -11 19v36q0 12 9 17t19 -1l340 -212q10 -6 10 -17v-5q0 -11 -10 -17l-340 -205q-10 -6 -19 -1t-9 17z" />
    <glyph glyph-name="question" unicode="?" horiz-adv-x="461" 
d="M201 272q-8 0 -13.5 5.5t-5.5 13.5v42q0 34 15.5 59.5t37.5 42l44 32t37.5 39t15.5 54.5q0 37 -26 62.5t-73 25.5q-13 0 -25 -1.5t-23 -5t-19.5 -6.5t-17 -9t-14 -9t-13 -10t-10 -9.5l-9.5 -9.5l-7 -8q-13 -13 -26 -1l-19 17q-12 10 0 26q2 4 7 9.5t21.5 21t35.5 27
t51.5 21t67.5 9.5q78 0 126 -42t48 -111q0 -36 -16.5 -65t-39.5 -47.5t-46 -34.5t-39.5 -35.5t-16.5 -41.5v-41q0 -20 -21 -20h-27zM156 47q0 24 17 40.5t40 16.5q24 0 40.5 -16.5t16.5 -40.5q0 -23 -16.5 -40t-40.5 -17q-23 0 -40 17t-17 40z" />
    <glyph glyph-name="at" unicode="@" horiz-adv-x="981" 
d="M43 223q0 215 125.5 351t334.5 136q196 0 309 -118t113 -304q0 -53 -11 -103t-34 -95t-65.5 -72.5t-98.5 -27.5q-49 0 -77.5 22t-37.5 56h-8q-17 -34 -50 -56t-76 -22q-77 0 -126 58t-49 153q0 98 49.5 153.5t128.5 55.5q36 0 64.5 -13t39.5 -27l11 -13q1 4 2.5 11
t2.5 10l2.5 7.5t3.5 6.5t5 4.5t7.5 3t10.5 0.5h10q7 0 13 -6t6 -13v-213q0 -69 18 -95.5t54 -26.5q60 0 101.5 65t41.5 177q0 161 -94.5 263.5t-267.5 102.5q-181 0 -288 -116t-107 -315q0 -137 71.5 -237.5t192.5 -152.5q11 -5 12.5 -10t-3.5 -15l-11 -27q-6 -14 -20 -8
q-139 58 -222 175t-83 275zM356 200q0 -67 34 -105.5t83 -38.5q46 0 72 27t36 67v142q-4 6 -11.5 15.5t-35 25t-60.5 15.5q-52 0 -85 -39t-33 -109z" />
    <glyph glyph-name="A" unicode="A" horiz-adv-x="663" 
d="M23 0q-11 0 -16.5 8t-0.5 18l304 673q6 11 17 11h10q11 0 17 -11l302 -673q5 -10 -0.5 -18t-16.5 -8h-40q-13 0 -17 11l-74 165h-355l-73 -165q-4 -11 -17 -11h-40zM181 238h300l-146 328h-8z" />
    <glyph glyph-name="B" unicode="B" horiz-adv-x="625" 
d="M102 19v662q0 8 5.5 13.5t13.5 5.5h219q91 0 148 -52t57 -132q0 -53 -29 -95t-69 -65q49 -20 84.5 -60.5t35.5 -102.5q0 -84 -61 -138.5t-157 -54.5h-228q-8 0 -13.5 5.5t-5.5 13.5zM177 386h163q56 0 88 35.5t32 89.5q0 55 -31.5 87.5t-88.5 32.5h-163v-245zM175 67h182
q54 0 90 36.5t36 90.5q0 53 -42 88t-101 35h-165v-250z" />
    <glyph glyph-name="C" unicode="C" horiz-adv-x="707" 
d="M51 349q0 150 105.5 255.5t255.5 105.5q133 0 242 -93q14 -15 1 -28l-27 -27q-11 -14 -26 1q-87 75 -191 75q-117 0 -198 -85t-81 -203q0 -117 81 -202t198 -85q41 0 77.5 11.5t58.5 25t55 38.5q13 10 24 3l30 -27q6 -5 5.5 -13t-6.5 -14q-100 -97 -243 -97
q-150 0 -255.5 104.5t-105.5 254.5z" />
    <glyph glyph-name="D" unicode="D" horiz-adv-x="747" 
d="M102 19v662q0 8 5.5 13.5t12.5 5.5h224q145 0 248 -102.5t103 -246.5q0 -145 -103 -248t-248 -103h-224q-7 0 -12.5 5.5t-5.5 13.5zM178 69h150q123 0 203 79.5t80 202.5t-80 202t-203 79h-150v-563z" />
    <glyph glyph-name="E" unicode="E" horiz-adv-x="592" 
d="M102 19v662q0 8 5.5 13.5t13.5 5.5h394q8 0 13.5 -5.5t5.5 -13.5v-29q0 -8 -5.5 -13.5t-13.5 -5.5h-336v-244h287q8 0 13.5 -5.5t5.5 -13.5v-29q0 -8 -5.5 -13.5t-13.5 -5.5h-287v-255h336q8 0 13.5 -5.5t5.5 -13.5v-29q0 -8 -5.5 -13.5t-13.5 -5.5h-394q-8 0 -13.5 5.5
t-5.5 13.5z" />
    <glyph glyph-name="F" unicode="F" horiz-adv-x="569" 
d="M102 19v662q0 8 5.5 13.5t13.5 5.5h394q8 0 13.5 -5.5t5.5 -13.5v-29q0 -8 -5.5 -13.5t-13.5 -5.5h-336v-274h287q8 0 13.5 -5.5t5.5 -13.5v-29q0 -7 -5.5 -13t-13.5 -6h-287v-273q0 -7 -5.5 -13t-13.5 -6h-39q-8 0 -13.5 5.5t-5.5 13.5z" />
    <glyph glyph-name="G" unicode="G" horiz-adv-x="732" 
d="M51 349q0 150 105.5 255.5t255.5 105.5q133 0 242 -93q14 -15 1 -28l-28 -28q-11 -12 -26 1q-40 35 -90.5 56.5t-99.5 21.5q-117 0 -197.5 -84.5t-80.5 -202.5q0 -117 80.5 -203t197.5 -86q49 0 94 10.5t65 21.5l21 10v140h-115q-8 0 -13.5 5t-5.5 13v37q0 19 19 19h173
q7 0 12.5 -5.5t5.5 -13.5v-229q0 -10 -8 -16q-11 -7 -32 -18t-86 -29.5t-129 -18.5q-150 0 -255.5 104.5t-105.5 254.5z" />
    <glyph glyph-name="H" unicode="H" horiz-adv-x="764" 
d="M102 19v662q0 7 6 13t13 6h39q8 0 13.5 -5.5t5.5 -13.5v-292h406v292q0 8 5.5 13.5t13.5 5.5h39q7 0 13 -6t6 -13v-662q0 -7 -6 -13t-13 -6h-39q-8 0 -13.5 5.5t-5.5 13.5v303h-406v-303q0 -8 -5.5 -13.5t-13.5 -5.5h-39q-7 0 -13 6t-6 13z" />
    <glyph glyph-name="I" unicode="I" horiz-adv-x="282" 
d="M102 19v662q0 7 6 13t13 6h40q7 0 13 -6t6 -13v-662q0 -7 -6 -13t-13 -6h-40q-7 0 -13 6t-6 13z" />
    <glyph glyph-name="J" unicode="J" horiz-adv-x="405" 
d="M-20 64q-8 13 2 25l21 24q17 16 34 -3q47 -53 97 -53t86 38t36 112v474q0 8 5.5 13.5t13.5 5.5h39q8 0 13.5 -5.5t5.5 -13.5v-472q0 -102 -55.5 -160.5t-145.5 -58.5q-92 0 -152 74z" />
    <glyph glyph-name="K" unicode="K" horiz-adv-x="618" 
d="M102 24v652q0 10 7 17t17 7h29q10 0 17 -7t7 -17v-283l312 297q8 10 19 10h49q14 0 18.5 -12t-6.5 -23l-316 -295l331 -339q7 -5 2.5 -18t-19.5 -13h-51q-13 0 -18 7l-321 335v-318q0 -10 -7 -17t-17 -7h-29q-10 0 -17 7t-7 17z" />
    <glyph glyph-name="L" unicode="L" horiz-adv-x="491" 
d="M102 19v662q0 8 5.5 13.5t13.5 5.5h39q8 0 13.5 -6t5.5 -13v-614h288q8 0 13.5 -5.5t5.5 -13.5v-29q0 -8 -5.5 -13.5t-13.5 -5.5h-346q-8 0 -13.5 5.5t-5.5 13.5z" />
    <glyph glyph-name="M" unicode="M" horiz-adv-x="862" 
d="M52 24l129 672q3 14 18 14h16q13 0 17 -11l198 -551h5l195 551q4 11 17 11h16q15 0 18 -14l129 -672q5 -24 -18 -24h-40q-14 0 -18 14l-89 515h-4l-184 -528q-4 -11 -17 -11h-18q-13 0 -17 11l-186 528h-4l-87 -515q-1 -5 -6.5 -9.5t-11.5 -4.5h-40q-23 0 -18 24z" />
    <glyph glyph-name="N" unicode="N" horiz-adv-x="774" 
d="M102 19v673q0 7 5.5 12.5t13.5 5.5h25l451 -562h2v533q0 8 5.5 13.5t13.5 5.5h35q7 0 13 -6t6 -13v-673q0 -7 -5.5 -12.5t-13.5 -5.5h-18l-459 573h-1v-544q0 -8 -5.5 -13.5t-13.5 -5.5h-35q-7 0 -13 6t-6 13z" />
    <glyph glyph-name="O" unicode="O" horiz-adv-x="821" 
d="M51 349q0 150 104.5 255.5t254.5 105.5t255 -105.5t105 -255.5t-105 -254.5t-255 -104.5t-254.5 104.5t-104.5 254.5zM121 349q0 -119 85 -204t204 -85t204.5 85t85.5 204t-85.5 205t-204.5 86t-204 -86t-85 -205z" />
    <glyph glyph-name="P" unicode="P" horiz-adv-x="596" 
d="M102 19v662q0 8 5.5 13.5t13.5 5.5h221q92 0 158 -65t66 -156q0 -93 -65.5 -159t-157.5 -66h-165v-235q0 -7 -6 -13t-13 -6h-38q-8 0 -13.5 5.5t-5.5 13.5zM178 328h159q62 0 107 44.5t45 108.5q0 60 -45 101.5t-107 41.5h-159v-296z" />
    <glyph glyph-name="Q" unicode="Q" horiz-adv-x="822" 
d="M51 349q0 150 104.5 255.5t254.5 105.5t255 -105.5t105 -255.5q0 -109 -58.5 -197.5t-154.5 -131.5l117 -188q7 -10 1.5 -20t-17.5 -10h-50q-10 0 -16 10l-109 184q-33 -6 -73 -6q-150 0 -254.5 104.5t-104.5 254.5zM121 349q0 -119 85 -204t204 -85t204.5 85t85.5 204
t-85.5 205t-204.5 86t-204 -86t-85 -205z" />
    <glyph glyph-name="R" unicode="R" horiz-adv-x="661" 
d="M102 19v662q0 8 5.5 13.5t13.5 5.5h259q90 0 154 -62t64 -151q0 -68 -40.5 -122.5t-107.5 -81.5l137 -254q6 -10 0.5 -19.5t-17.5 -9.5h-51q-11 0 -16 9l-133 265h-191v-255q0 -7 -5.5 -13t-13.5 -6h-39q-8 0 -13.5 5.5t-5.5 13.5zM181 340h194q58 0 101 42.5t43 103.5
q0 57 -43 99t-101 42h-194v-287z" />
    <glyph glyph-name="S" unicode="S" horiz-adv-x="533" 
d="M63 71q-18 15 -6 34q3 3 8 9.5t7 9.5q18 24 35 9q89 -76 169 -76q59 0 96.5 32t37.5 78q0 49 -41.5 84.5t-133.5 73.5q-92 40 -134 83.5t-42 123.5q0 28 11.5 57t35 57t67 46t99.5 18q44 0 86.5 -13t63.5 -25l21 -13q7 -3 10 -11t-4 -23q-2 -3 -6 -9.5t-6 -9.5
q-14 -21 -35 -9q-80 46 -131 46q-71 0 -104.5 -35t-33.5 -75q0 -48 33.5 -80.5t101.5 -60.5q115 -47 168.5 -94t53.5 -128q0 -77 -63.5 -128.5t-152.5 -51.5q-53 0 -104.5 19.5t-72 34t-34.5 27.5z" />
    <glyph glyph-name="T" unicode="T" horiz-adv-x="478" 
d="M201 19v614h-174q-8 0 -13.5 5.5t-5.5 13.5v29q0 8 5.5 13.5t13.5 5.5h424q8 0 13.5 -5.5t5.5 -13.5v-29q0 -8 -5.5 -13.5t-13.5 -5.5h-174v-614q0 -7 -5.5 -13t-13.5 -6h-38q-8 0 -13.5 6t-5.5 13z" />
    <glyph glyph-name="U" unicode="U" horiz-adv-x="716" 
d="M93 258v423q0 7 5.5 13t13.5 6h38q8 0 13.5 -5.5t5.5 -13.5v-417q0 -88 51 -145.5t137 -57.5q87 0 138.5 57t51.5 144v419q0 8 5.5 13.5t13.5 5.5h38q8 0 13.5 -6t5.5 -13v-423q0 -115 -74.5 -191.5t-191.5 -76.5q-116 0 -190 76.5t-74 191.5z" />
    <glyph glyph-name="V" unicode="V" horiz-adv-x="664" 
d="M309 1l-302 673q-5 10 0.5 18t16.5 8h40q13 0 17 -11l249 -560h4l249 560q4 11 17 11h40q11 0 16.5 -8t0.5 -18l-304 -673q-5 -11 -17 -11h-10q-12 0 -17 11z" />
    <glyph glyph-name="W" unicode="W" horiz-adv-x="902" 
d="M226 4l-189 672q-3 10 2 17t16 7h42q14 0 18 -14l139 -518h4l167 531q4 11 17 11h18q13 0 17 -11l170 -531h4l136 518q4 14 18 14h42q11 0 16 -7t2 -17l-189 -672q-4 -14 -18 -14h-16q-12 0 -17 11l-173 541h-5l-170 -541q-5 -11 -17 -11h-16q-14 0 -18 14z" />
    <glyph glyph-name="X" unicode="X" horiz-adv-x="583" 
d="M40 28l203 331l-195 313q-6 10 -1 19t18 9h54q12 0 17 -9l154 -265h1l156 265q5 9 17 9h54q13 0 18 -9t-1 -19l-195 -313l202 -331q6 -10 1 -19t-18 -9h-46q-13 0 -17 9l-171 283h-1l-169 -283q-5 -9 -17 -9h-46q-13 0 -18.5 9t0.5 19z" />
    <glyph glyph-name="Y" unicode="Y" horiz-adv-x="565" 
d="M243 19v318l-241 334q-6 10 -1 19.5t17 9.5h47q9 0 16 -9l202 -279l202 279q7 9 16 9h47q12 0 17 -9.5t-1 -19.5l-244 -333v-319q0 -7 -6 -13t-13 -6h-39q-8 0 -13.5 5.5t-5.5 13.5z" />
    <glyph glyph-name="Z" unicode="Z" horiz-adv-x="534" 
d="M30 19v18l363 590v3h-315q-8 0 -13.5 6t-5.5 13v32q0 7 5.5 13t13.5 6h405q7 0 13 -6t6 -13v-13l-369 -597v-1h330q8 0 13.5 -5.5t5.5 -13.5v-32q0 -8 -5.5 -13.5t-13.5 -5.5h-414q-7 0 -13 6t-6 13z" />
    <glyph glyph-name="bracketleft" unicode="[" horiz-adv-x="327" 
d="M146 -237h137q8 0 13.5 -5.5t5.5 -12.5v-26q0 -7 -6 -13t-13 -6h-186q-7 0 -13 6t-6 13v962q0 7 6 13t13 6h186q7 0 13 -6t6 -13v-25q0 -8 -5.5 -13.5t-13.5 -5.5h-137v-874z" />
    <glyph glyph-name="backslash" unicode="\" horiz-adv-x="330" 
d="M221 13l-195 662q-3 10 2 17.5t16 7.5h32q14 0 18 -13l196 -662q3 -10 -2.5 -17.5t-15.5 -7.5h-33q-14 0 -18 13z" />
    <glyph glyph-name="bracketright" unicode="]" horiz-adv-x="327" 
d="M44 -237h137v874h-137q-8 0 -13.5 5.5t-5.5 13.5v25q0 7 5.5 13t13.5 6h186q8 0 13.5 -6t5.5 -13v-962q0 -7 -5.5 -13t-13.5 -6h-186q-8 0 -13.5 6t-5.5 13v26q0 7 5.5 12.5t13.5 5.5z" />
    <glyph glyph-name="asciicircum" unicode="^" horiz-adv-x="524" 
d="M60 398q-12 0 -17 9t1 19l201 278q6 10 17 10h5q11 0 17 -10l196 -278q6 -10 1 -19t-17 -9h-33q-12 0 -19 11l-149 211l-151 -211q-8 -11 -19 -11h-33z" />
    <glyph glyph-name="underscore" unicode="_" horiz-adv-x="387" 
d="M25 -29q0 19 19 19h299q19 0 19 -19v-16q0 -8 -5.5 -13t-13.5 -5h-299q-8 0 -13.5 5t-5.5 13v16z" />
    <glyph glyph-name="grave" unicode="`" horiz-adv-x="302" 
d="M237 559l-161 67q-14 5 -6 21l18 36q3 6 12.5 6.5t13.5 -3.5l150 -84q12 -6 6 -19l-10 -22q-5 -10 -23 -2z" />
    <glyph glyph-name="a" unicode="a" horiz-adv-x="420" 
d="M42 121q0 59 42.5 96t117.5 37q19 0 40.5 -3t33.5 -7l11 -3q1 60 -11.5 84t-53.5 24q-63 0 -120 -22q-14 -6 -19 10l-8 25q-5 15 11 22q6 3 21.5 8t49.5 11.5t68 6.5q74 0 100.5 -38.5t26.5 -130.5v-222q0 -7 -6 -13t-13 -6h-19q-12 0 -17 15l-8 27q-52 -52 -124 -52
q-53 0 -88 36t-35 95zM106 121q0 -31 19 -51t51 -20q35 0 65 17.5t45 38.5v79q-27 16 -84 16q-43 0 -69.5 -21t-26.5 -59z" />
    <glyph glyph-name="b" unicode="b" 
d="M72 19v662q0 7 6 13t13 6h31q8 0 13.5 -6t5.5 -13v-297q41 26 107 26q88 0 140 -59.5t52 -149.5q0 -87 -53 -149t-129 -62q-33 0 -64 13t-45 27l-14 13l-6 -27q-4 -16 -17 -16h-21q-7 0 -13 6t-6 13zM142 119q4 -7 12 -18t36.5 -29.5t60.5 -18.5q53 0 86 43t33 104
q0 63 -34 103t-97 40q-24 0 -48.5 -6t-36.5 -12l-12 -6v-200z" />
    <glyph glyph-name="c" unicode="c" horiz-adv-x="441" 
d="M41 199q0 87 61.5 149t144.5 62q88 0 143 -70q12 -16 -4 -28l-19 -16q-4 -4 -7.5 -6t-7 -1t-4.5 1.5t-5 4.5l-5 5q-37 42 -92 42q-56 0 -94.5 -41t-38.5 -101t38 -102t94 -42q12 0 23 1.5t20.5 5.5t16 6.5t14.5 9l11 9t11 10.5l10 10q14 14 30 2l11 -8q17 -12 7 -28
q-24 -38 -64 -61t-89 -23q-84 0 -144.5 60t-60.5 149z" />
    <glyph glyph-name="d" unicode="d" 
d="M42 201q0 90 52 149.5t140 59.5q29 0 56 -6.5t39 -13.5l12 -6v297q0 7 5.5 13t13.5 6h31q7 0 13 -6t6 -13v-662q0 -7 -6 -13t-13 -6h-21q-13 0 -17 16l-6 27l-5.5 -5.5t-16 -13t-26 -16.5t-34 -12.5t-41.5 -5.5q-76 0 -129 62t-53 149zM112 200q0 -61 33 -104t86 -43
q20 0 38.5 7t31 16.5t22 19t13.5 16.5l4 7v200q-42 24 -97 24q-63 0 -97 -40t-34 -103z" />
    <glyph glyph-name="e" unicode="e" horiz-adv-x="457" 
d="M42 200q0 88 54 149t142 61q79 0 130 -52t51 -131q0 -13 -2 -27q-2 -17 -18 -17h-288q3 -51 42.5 -90.5t91.5 -39.5q50 0 99 30q13 7 16 8t12 -6l17 -23q6 -8 6 -13t-10 -13q-58 -46 -147 -46q-88 0 -142 60.5t-54 149.5zM112 239h238q-2 44 -34.5 77t-77.5 33
q-50 0 -85.5 -31.5t-40.5 -78.5z" />
    <glyph glyph-name="f" unicode="f" horiz-adv-x="320" 
d="M103 19v321h-61q-8 0 -13.5 5.5t-5.5 13.5v22q0 19 19 19h61v140q0 83 42.5 126.5t110.5 43.5q67 0 110 -41q12 -10 4 -23l-16 -26q-9 -15 -26 -1q-38 29 -73 29q-37 0 -60 -26.5t-23 -81.5v-140h116q19 0 19 -19v-22q0 -8 -5.5 -13.5t-13.5 -5.5h-116v-321q0 -7 -6 -13
t-13 -6h-31q-8 0 -13.5 6t-5.5 13z" />
    <glyph glyph-name="g" unicode="g" horiz-adv-x="459" 
d="M31 19q0 34 16.5 62.5t33.5 40.5l17 12q-32 41 -32 100q0 73 46.5 124.5t122.5 51.5h169q19 0 19 -19v-17q0 -15 -11 -17l-54 -11q5 -4 12.5 -11.5t20 -36.5t12.5 -64q0 -71 -46.5 -120.5t-121.5 -49.5q-28 0 -52 6t-33 12l-10 7q-5 -2 -12.5 -6.5t-19.5 -20t-12 -33.5
q0 -20 14.5 -34.5t40.5 -14.5h144q66 0 108 -32.5t42 -95.5q0 -64 -59.5 -113t-147.5 -49q-94 0 -143 41.5t-49 96.5q0 58 58 93v3q-27 7 -50 30.5t-23 64.5zM236 124q45 0 72.5 31t27.5 81t-27.5 81t-72.5 31q-46 0 -75.5 -31.5t-29.5 -80.5t29.5 -80.5t75.5 -31.5z
M117 -162q0 -36 34.5 -59.5t85.5 -23.5q52 0 93 26.5t41 68.5q0 11 -3.5 23.5t-22 27t-50.5 14.5h-111q-8 -2 -19 -6.5t-29.5 -24.5t-18.5 -46z" />
    <glyph glyph-name="h" unicode="h" horiz-adv-x="496" 
d="M72 19v662q0 7 6 13t13 6h31q8 0 13.5 -6t5.5 -13v-324q6 6 17 15t46 23.5t71 14.5q75 0 115 -46.5t40 -133.5v-211q0 -7 -6 -13t-13 -6h-32q-7 0 -13 6t-6 13v211q0 56 -23.5 84.5t-66.5 28.5q-34 0 -66 -14t-48 -28l-15 -14v-268q0 -7 -5.5 -13t-13.5 -6h-31
q-7 0 -13 6t-6 13z" />
    <glyph glyph-name="i" unicode="i" horiz-adv-x="211" 
d="M104 585q-20 0 -33.5 13.5t-13.5 33.5t13.5 34t33.5 14t34 -14t14 -34t-14 -33.5t-34 -13.5zM71 19v362q0 7 5.5 13t13.5 6h31q7 0 13 -6t6 -13v-362q0 -7 -6 -13t-13 -6h-31q-8 0 -13.5 6t-5.5 13z" />
    <glyph glyph-name="j" unicode="j" horiz-adv-x="213" 
d="M106 585q-20 0 -33.5 13.5t-13.5 33.5t13.5 34t33.5 14t34 -14t14 -34t-14 -33.5t-34 -13.5zM72 -140v521q0 8 5.5 13.5t13.5 5.5h31q8 0 13.5 -5.5t5.5 -13.5v-521q0 -83 -42.5 -126.5t-110.5 -43.5q-67 0 -110 41q-12 10 -4 23l16 26q9 15 26 1q38 -29 73 -29
q37 0 60 26.5t23 81.5z" />
    <glyph glyph-name="k" unicode="k" horiz-adv-x="448" 
d="M72 19v662q0 7 6 13t13 6h31q8 0 13.5 -6t5.5 -13v-433l170 140q14 12 24 12h54q12 0 13.5 -10t-4.5 -15l-190 -152l221 -198q7 -5 4.5 -15t-14.5 -10h-55q-9 0 -20 8l-203 193v-182q0 -7 -5.5 -13t-13.5 -6h-31q-7 0 -13 6t-6 13z" />
    <glyph glyph-name="l" unicode="l" horiz-adv-x="213" 
d="M72 19v662q0 7 6 13t13 6h31q8 0 13.5 -6t5.5 -13v-662q0 -7 -5.5 -13t-13.5 -6h-31q-7 0 -13 6t-6 13z" />
    <glyph glyph-name="m" unicode="m" horiz-adv-x="762" 
d="M71 19v362q0 7 5.5 13t13.5 6h19q13 0 16 -12l9 -31l5.5 5.5t16 13t26.5 16.5t36.5 12.5t45.5 5.5q88 0 128 -65q81 65 149 65q155 0 155 -180v-211q0 -7 -6 -13t-13 -6h-32q-7 0 -13 6t-6 13v211q0 113 -90 113q-62 0 -122 -56q5 -28 5 -57v-211q0 -7 -5.5 -13t-13.5 -6
h-32q-8 0 -13.5 6t-5.5 13v211q0 113 -95 113q-32 0 -60.5 -14.5t-41.5 -28.5l-12 -14v-267q0 -7 -6 -13t-13 -6h-31q-8 0 -13.5 6t-5.5 13z" />
    <glyph glyph-name="n" unicode="n" horiz-adv-x="495" 
d="M71 19v362q0 7 5.5 13t13.5 6h19q13 0 16 -12l9 -31q6 6 18 15t48.5 23.5t73.5 14.5q155 0 155 -180v-211q0 -7 -5.5 -13t-13.5 -6h-32q-8 0 -13.5 6t-5.5 13v211q0 56 -23.5 84.5t-66.5 28.5q-33 0 -65.5 -14.5t-47.5 -28.5l-16 -14v-267q0 -7 -6 -13t-13 -6h-31
q-8 0 -13.5 6t-5.5 13z" />
    <glyph glyph-name="o" unicode="o" 
d="M42 201q0 85 58 147t141 62t141 -62t58 -147q0 -87 -58 -149t-141 -62t-141 62t-58 149zM111 201q0 -61 37.5 -103.5t92.5 -42.5t92.5 42.5t37.5 103.5q0 59 -37.5 101t-92.5 42t-92.5 -42t-37.5 -101z" />
    <glyph glyph-name="p" unicode="p" 
d="M141 23v-304q0 -7 -5.5 -13t-13.5 -6h-31q-7 0 -13 6t-6 13v662q0 7 6 13t13 6h21q11 0 16 -13l7 -19q5 5 14.5 12t39.5 18.5t62 11.5q81 0 135 -62t54 -149q0 -88 -55 -148.5t-137 -60.5q-29 0 -56 8t-39 16zM142 92q42 -35 97 -35q57 0 94 41t37 102t-34 104t-92 43
q-29 0 -54.5 -12.5t-36.5 -24.5l-11 -12v-206z" />
    <glyph glyph-name="q" unicode="q" 
d="M42 199q0 87 54 149t135 62q32 0 61 -10.5t42 -21.5l13 -10l7 18q5 14 19 14h18q7 0 13 -6t6 -13v-662q0 -7 -6 -13t-13 -6h-31q-8 0 -13.5 6t-5.5 13v306q-41 -35 -107 -35q-82 0 -137 60.5t-55 148.5zM112 200q0 -61 37 -102t94 -41q24 0 48.5 8.5t36.5 16.5l12 8v208
q-4 5 -12 13.5t-34.5 22t-55.5 13.5q-58 0 -92 -43t-34 -104z" />
    <glyph glyph-name="r" unicode="r" horiz-adv-x="334" 
d="M71 19v362q0 7 5.5 13t13.5 6h19q14 0 17 -14l8 -29q2 2 4.5 5.5t13.5 13t24 16.5t34 12.5t44 5.5q13 0 25 -1.5t24.5 -4.5t18.5 -10t2 -17l-12 -34q-6 -16 -24 -9q-18 8 -39 8q-34 0 -61 -14t-38 -28l-10 -14v-267q0 -7 -6 -13t-13 -6h-31q-8 0 -13.5 6t-5.5 13z" />
    <glyph glyph-name="s" unicode="s" horiz-adv-x="356" 
d="M52 35q-10 8 -5 21q2 3 7.5 13t6.5 12q9 14 27 3q43 -35 94 -35q30 0 47.5 13.5t17.5 34.5q0 24 -19 39.5t-69 40.5q-33 16 -54.5 30t-40.5 40.5t-19 58.5q0 38 32 71t95 33q66 0 111 -31q17 -11 6 -31l-8 -16q-11 -19 -29 -9q-43 24 -80 24q-30 0 -43.5 -12t-13.5 -28
t12 -29t23 -19t39 -20q33 -16 51 -26t39.5 -26.5t31 -37t9.5 -46.5q0 -45 -39 -79t-99 -34q-72 0 -130 45z" />
    <glyph glyph-name="t" unicode="t" horiz-adv-x="342" 
d="M97 100v240h-51q-8 0 -13.5 5.5t-5.5 13.5v22q0 19 19 19h51v111q0 7 5.5 13t13.5 6l32 2q7 0 12.5 -5.5t5.5 -13.5v-113h116q19 0 19 -19v-22q0 -8 -5.5 -13.5t-13.5 -5.5h-116v-234q0 -29 7.5 -38.5t25.5 -9.5q32 0 73 22q15 8 24 -6l15 -25q9 -15 -7 -25t-50 -22
t-65 -12q-55 0 -73.5 28t-18.5 82z" />
    <glyph glyph-name="u" unicode="u" horiz-adv-x="485" 
d="M66 171v210q0 7 6 13t13 6h32q7 0 13 -6t6 -13v-211q0 -56 23.5 -84.5t66.5 -28.5q34 0 63.5 14.5t42.5 28.5l13 14v267q0 7 5.5 13t13.5 6h31q7 0 13 -6t6 -13v-362q0 -7 -6 -13t-13 -6h-19q-13 0 -18 17l-7 26l-5.5 -5.5t-16 -13t-26.5 -16.5t-36.5 -12.5t-45.5 -5.5
q-155 0 -155 181z" />
    <glyph glyph-name="v" unicode="v" horiz-adv-x="411" 
d="M185 0l-169 377q-5 10 -0.5 16.5t15.5 6.5h31q12 0 18 -11l124 -286h1l132 286q5 11 17 11h26q11 0 15.5 -6.5t-0.5 -16.5l-171 -377q-4 -10 -17 -10h-5q-13 0 -17 10z" />
    <glyph glyph-name="w" unicode="w" horiz-adv-x="604" 
d="M144 0l-111 377q-7 23 15 23h31q14 0 18 -11l73 -264h1l113 275q4 10 17 10h5q13 0 17 -10l112 -276h1l72 265q4 11 17 11h31q22 0 15 -23l-109 -377q-3 -10 -17 -10h-5q-13 0 -17 10l-122 300l-118 -300q-4 -10 -17 -10h-5q-14 0 -17 10z" />
    <glyph glyph-name="x" unicode="x" horiz-adv-x="417" 
d="M37 26l131 178l-127 170q-8 10 -4 18t17 8h42q10 0 16 -8l95 -136h1l99 136q6 8 16 8h42q13 0 17 -8t-4 -18l-127 -169l128 -179q7 -10 3 -18t-16 -8h-37q-8 0 -15 9l-106 147h-1l-104 -148q-6 -8 -16 -8h-37q-12 0 -16 8t3 18z" />
    <glyph glyph-name="y" unicode="y" horiz-adv-x="466" 
d="M200 1l-186 377q-5 10 -0.5 16t15.5 6h44q11 0 17 -11l148 -306h1l140 306q5 11 17 11h38q11 0 15.5 -6.5t-0.5 -16.5l-307 -665q-6 -12 -17 -12h-37q-11 0 -16 7t0 18z" />
    <glyph glyph-name="z" unicode="z" horiz-adv-x="365" 
d="M36 19v10l196 305v3h-168q-7 0 -12.5 5.5t-5.5 13.5v25q0 8 5 13.5t13 5.5h251q11 0 17 -8.5t0 -18.5l-191 -307v-3h154q19 0 19 -19v-25q0 -8 -5.5 -13.5t-13.5 -5.5h-240q-7 0 -13 6t-6 13z" />
    <glyph glyph-name="braceleft" unicode="{" horiz-adv-x="399" 
d="M109 -71v161q0 30 -23.5 52t-45.5 26q-15 2 -15 17v31q0 13 15 15q22 4 45.5 26t23.5 52v161q0 65 23.5 114t61 75t78 38.5t82.5 12.5q20 0 20 -17v-19q0 -16 -13 -18q-77 -11 -130 -60t-53 -126v-133q0 -35 -7.5 -60.5t-22 -40t-24.5 -21t-25 -12.5v-7q15 -6 25 -12.5
t24.5 -21t22 -40t7.5 -60.5v-133q0 -77 53 -125.5t130 -59.5q13 -2 13 -17v-20q0 -7 -6 -12t-14 -5q-42 0 -82.5 12.5t-78 38.5t-61 74.5t-23.5 113.5z" />
    <glyph glyph-name="bar" unicode="|" horiz-adv-x="198" 
d="M77 -282v1023q0 8 5.5 13.5t13.5 5.5h7q8 0 13 -5.5t5 -13.5v-1023q0 -7 -5.5 -12.5t-13.5 -5.5h-6q-8 0 -13.5 5.5t-5.5 12.5z" />
    <glyph glyph-name="braceright" unicode="}" horiz-adv-x="399" 
d="M221 62q0 35 7.5 60.5t22 40t24.5 21t25 12.5v7q-15 6 -25 12.5t-24.5 21t-22 40t-7.5 60.5v133q0 77 -53 126t-130 60q-13 2 -13 18v19q0 17 20 17q42 0 82.5 -12.5t78 -38.5t61 -75t23.5 -114v-161q0 -30 23.5 -52t45.5 -26q15 -2 15 -15v-31q0 -15 -15 -17
q-22 -4 -45.5 -26t-23.5 -52v-161q0 -65 -23.5 -113.5t-61 -74.5t-78 -38.5t-82.5 -12.5q-8 0 -14 5t-6 12v20q0 15 13 17q77 11 130 59.5t53 125.5v133z" />
    <glyph glyph-name="asciitilde" unicode="~" horiz-adv-x="556" 
d="M79 228q-3 3 -10 8.5l-11 8.5q-13 11 -2 24q2 4 6 10t18 22t28.5 28t36.5 22t44 10q45 0 108 -45q48 -34 73 -34q9 0 18 2.5t17 7.5t13.5 9.5t12.5 13t9.5 12l8.5 12.5l6 9q12 17 27 4l21 -17q13 -11 2 -24q-2 -4 -6 -10t-18 -22t-28.5 -28t-37 -22t-45.5 -10
q-42 0 -104 43q-2 2 -11.5 8.5l-15 10t-14.5 8.5t-17.5 7t-17.5 2t-18 -2.5t-16.5 -7.5t-13 -9.5t-12.5 -13t-9.5 -12l-8.5 -12t-6 -9.5q-12 -17 -27 -4z" />
    <glyph glyph-name="uni00A0" unicode="&#xa0;" horiz-adv-x="222" 
 />
    <glyph glyph-name="exclamdown" unicode="&#xa1;" horiz-adv-x="229" 
d="M115 296q-24 0 -40.5 16.5t-16.5 40.5q0 23 16.5 40t40.5 17q23 0 40 -17t17 -40q0 -24 -17 -40.5t-40 -16.5zM90 112q1 6 6.5 11t12.5 5h12q7 0 12.5 -5t6.5 -11l19 -279v-114q0 -7 -5.5 -13t-13.5 -6h-50q-8 0 -13.5 6t-5.5 13v112z" />
    <glyph glyph-name="cent" unicode="&#xa2;" horiz-adv-x="427" 
d="M153 7q-55 24 -89 75.5t-34 116.5q0 88 60 149.5t146 61.5q8 0 26 -2l11 41q5 18 23 13l7 -2q18 -4 13 -23l-11 -40q43 -18 74 -57q12 -16 -4 -28l-19 -16q-5 -4 -8 -5.5t-6.5 -0.5t-4.5 1.5t-5 4t-5 4.5q-17 18 -40 30l-74 -273q7 -1 21 -1q25 0 48 10t31.5 17.5
l26.5 24.5q14 14 30 2l11 -8q17 -12 7 -28q-24 -38 -64 -61t-89 -23q-23 0 -39 4l-26 -97q-1 -7 -8 -11t-15 -2l-6 2q-18 4 -14 22zM171 72l73 269q-5 1 -9 1q-56 0 -94.5 -41t-38.5 -101q0 -42 18.5 -76t50.5 -52z" />
    <glyph glyph-name="sterling" unicode="&#xa3;" horiz-adv-x="504" 
d="M82 19v18q64 121 39 257h-44q-7 0 -12.5 5.5t-5.5 13.5v7q0 8 5.5 13.5t12.5 5.5h32q-1 4 -10 34t-15.5 64.5t-6.5 67.5q0 93 59.5 149t149.5 56q86 0 167 -71q15 -11 2 -26l-21 -26q-15 -19 -29 -1q-6 6 -17.5 16t-43.5 26t-62 16q-58 0 -96.5 -39t-38.5 -101
q0 -34 7.5 -70t16 -63.5t9.5 -31.5h164q8 0 13.5 -5.5t5.5 -13.5v-8q0 -8 -5.5 -13t-13.5 -5h-153q9 -35 4 -109t-26 -121h250q8 0 13 -5.5t5 -13.5v-26q0 -8 -5.5 -13.5t-12.5 -5.5h-318q-7 0 -13 6t-6 13z" />
    <glyph glyph-name="currency" unicode="&#xa4;" horiz-adv-x="476" 
d="M101 176l-20 19q-13 13 0 27l41 41q-40 69 0 138l-41 41q-13 14 0 27l20 19q5 5 13.5 5t13.5 -5l41 -41q32 20 69 20t69 -19l42 42q13 12 26 -1l20 -20q13 -13 0 -26l-41 -41q20 -31 20 -69.5t-20 -70.5l41 -41q13 -13 0 -26l-20 -20q-13 -13 -26 -1l-42 42
q-32 -19 -69.5 -18.5t-68.5 19.5l-41 -41q-5 -5 -13.5 -5t-13.5 5zM238 260q30 0 51 21t21 51t-21 51t-51 21t-51 -21t-21 -51t21 -51t51 -21z" />
    <glyph glyph-name="yen" unicode="&#xa5;" horiz-adv-x="618" 
d="M138 123q-7 0 -12.5 5.5t-5.5 13.5v7q0 8 5.5 13.5t12.5 5.5h131v75h-131q-7 0 -12.5 5.5t-5.5 13.5v7q0 8 5.5 13.5t12.5 5.5h131v49l-241 334q-6 10 -1 19.5t17 9.5h47q9 0 16 -9l202 -279l202 279q7 9 16 9h47q12 0 17 -9.5t-1 -19.5l-244 -333v-50h129q8 0 13.5 -5.5
t5.5 -13.5v-8q0 -8 -5.5 -13t-13.5 -5h-129v-75h129q8 0 13.5 -5.5t5.5 -13.5v-8q0 -8 -5.5 -13t-13.5 -5h-129v-104q0 -7 -6 -13t-13 -6h-39q-8 0 -13.5 5.5t-5.5 13.5v104h-131z" />
    <glyph glyph-name="brokenbar" unicode="&#xa6;" horiz-adv-x="364" 
d="M179 393q-8 0 -13.5 5.5t-5.5 12.5v330q0 8 5.5 13.5t13.5 5.5h7q8 0 13 -5.5t5 -13.5v-330q0 -7 -5.5 -12.5t-13.5 -5.5h-6zM160 49q0 8 5.5 13.5t13.5 5.5h7q8 0 13 -5.5t5 -13.5v-331q0 -7 -5.5 -12.5t-13.5 -5.5h-6q-8 0 -13.5 5.5t-5.5 12.5v331z" />
    <glyph glyph-name="section" unicode="&#xa7;" horiz-adv-x="527" 
d="M66 -110q15 18 30 3q10 -10 27.5 -23.5t60 -33t81.5 -19.5q57 0 95.5 26t38.5 74q0 46 -42.5 83t-132.5 75q-176 74 -176 195q0 24 8 46t20 36t24 25t20 16l8 5q-3 2 -8.5 6t-19.5 18t-24.5 29.5t-19 40t-8.5 50.5q0 62 52.5 115t160.5 53q44 0 86.5 -13t63.5 -25l21 -13
q7 -3 10 -10.5t-3 -22.5l-15 -23q-13 -17 -33 -6q-80 46 -131 46q-73 0 -105.5 -30.5t-32.5 -69.5q0 -76 135 -131q116 -48 169 -91t53 -111q0 -37 -21.5 -71.5t-42.5 -50.5l-21 -16q3 -2 9 -6.5t20.5 -19t26 -31t20.5 -42.5t9 -53q0 -77 -61 -123.5t-155 -46.5
q-53 0 -104.5 19.5t-72 34t-34.5 27.5q-19 17 -6 34zM122 273q0 -24 8.5 -42t31.5 -34.5t41.5 -26.5t61.5 -30.5l69 -33.5q3 1 7 3.5t15.5 11.5t20 19t15.5 27.5t7 36.5q0 42 -40 71.5t-135 69.5q-28 12 -42 19q-7 -3 -17 -9t-26.5 -29.5t-16.5 -52.5z" />
    <glyph glyph-name="dieresis" unicode="&#xa8;" horiz-adv-x="414" 
d="M320 585q-20 0 -33.5 13.5t-13.5 33.5t13.5 34t33.5 14t34 -14t14 -34t-14 -33.5t-34 -13.5zM127 585q-19 0 -33 13.5t-14 33.5t13.5 34t33.5 14t34 -14t14 -34t-14 -33.5t-34 -13.5z" />
    <glyph glyph-name="copyright" unicode="&#xa9;" horiz-adv-x="826" 
d="M54 350q0 149 105.5 254.5t253.5 105.5q149 0 254.5 -106t105.5 -254t-105.5 -253.5t-254.5 -105.5t-254 105.5t-105 253.5zM114 350q0 -124 87.5 -211.5t211.5 -87.5t211.5 87.5t87.5 211.5t-87 211.5t-212 87.5q-124 0 -211.5 -87.5t-87.5 -211.5zM235 348
q0 78 54.5 133t132.5 55q67 0 115 -38q16 -14 2 -29l-14 -18q-9 -12 -27 -1q-34 23 -74 23q-51 0 -85 -36t-34 -86q0 -52 34 -87t85 -35q38 0 71 22q19 12 29 -1l16 -19q13 -14 -1 -28q-49 -42 -117 -42q-77 0 -132 55t-55 132z" />
    <glyph glyph-name="ordfeminine" unicode="&#xaa;" horiz-adv-x="312" 
d="M124 404q-39 0 -64 26.5t-25 70.5q0 43 30.5 69.5t85.5 26.5q14 0 29 -2.5t23 -4.5l8 -3q0 44 -8.5 60.5t-36.5 16.5q-36 0 -86 -18q-11 -3 -15 11l-5 18q-3 10 7 15q3 2 14.5 6.5t36.5 9t52 4.5q26 0 44 -7.5t27 -17.5t13.5 -29.5t5 -32t0.5 -37.5v-8v-152
q0 -14 -13 -14h-18q-9 0 -12 10l-6 21q-42 -39 -87 -39zM130 451q23 0 45.5 12t33.5 26v56q-26 13 -61 13q-29 0 -48.5 -16t-19.5 -40q0 -22 14 -36.5t36 -14.5z" />
    <glyph glyph-name="guillemotleft" unicode="&#xab;" horiz-adv-x="415" 
d="M204 194q-8 11 0 24l109 148q7 12 18 12h14q13 0 17 -9.5t-2 -21.5l-74 -139l71 -147q6 -12 2 -21t-17 -9h-19q-9 0 -15 8zM145 39l-104 155q-8 11 0 24l109 148q7 12 18 12h14q13 0 17 -9.5t-2 -21.5l-74 -139l71 -147q6 -12 2 -21t-17 -9h-19q-9 0 -15 8z" />
    <glyph glyph-name="logicalnot" unicode="&#xac;" horiz-adv-x="520" 
d="M56 314q-8 0 -13.5 6t-5.5 13v28q0 7 5.5 13t13.5 6h380q8 0 13.5 -6t5.5 -13v-204q0 -7 -5.5 -12.5t-13.5 -5.5h-28q-8 0 -13.5 5.5t-5.5 12.5v157h-333z" />
    <glyph glyph-name="uni00AD" unicode="&#xad;" horiz-adv-x="347" 
d="M69 220q-8 0 -13.5 5t-5.5 13v19q0 19 19 19h209q19 0 19 -19v-19q0 -8 -5.5 -13t-13.5 -5h-209z" />
    <glyph glyph-name="registered" unicode="&#xae;" horiz-adv-x="827" 
d="M54 350q0 149 105.5 254.5t253.5 105.5q149 0 254.5 -106t105.5 -254t-105.5 -253.5t-254.5 -105.5t-254 105.5t-105 253.5zM114 350q0 -124 87.5 -211.5t211.5 -87.5t211.5 87.5t87.5 211.5t-87 211.5t-212 87.5q-124 0 -211.5 -87.5t-87.5 -211.5zM288 187v328
q0 8 5.5 13.5t13.5 5.5h142q50 0 86.5 -29.5t36.5 -82.5q0 -50 -25.5 -76t-55.5 -33l60 -118q5 -9 -0.5 -18t-16.5 -9h-34q-11 0 -18 14l-56 125h-74v-120q0 -8 -5.5 -13.5t-13.5 -5.5h-26q-8 0 -13.5 5.5t-5.5 13.5zM351 365h98q27 0 43.5 16.5t16.5 40.5q0 26 -16 41.5
t-44 15.5h-98v-114z" />
    <glyph glyph-name="macron" unicode="&#xaf;" horiz-adv-x="414" 
d="M79 583q-8 0 -13.5 5t-5.5 13v21q0 19 19 19h256q19 0 19 -19v-21q0 -8 -5.5 -13t-13.5 -5h-256z" />
    <glyph glyph-name="degree" unicode="&#xb0;" horiz-adv-x="334" 
d="M167 440q-56 0 -95.5 39.5t-39.5 95.5t39.5 95.5t95.5 39.5t95.5 -39.5t39.5 -95.5t-39.5 -95.5t-95.5 -39.5zM167 493q31 0 55.5 25t24.5 57q0 31 -24.5 55.5t-55.5 24.5q-32 0 -57 -24.5t-25 -55.5q0 -32 25 -57t57 -25z" />
    <glyph glyph-name="plusminus" unicode="&#xb1;" horiz-adv-x="597" 
d="M266 267v117h-157q-7 0 -13 6t-6 13v28q0 7 6 13t13 6h157v148q0 7 5.5 12.5t13.5 5.5h28q8 0 13.5 -5.5t5.5 -12.5v-148h158q7 0 12.5 -5.5t5.5 -13.5v-28q0 -8 -5.5 -13.5t-12.5 -5.5h-158v-117q0 -7 -5.5 -12.5t-13.5 -5.5h-28q-8 0 -13.5 5.5t-5.5 12.5zM89 80v28
q0 8 5.5 13.5t13.5 5.5h381q7 0 12.5 -5.5t5.5 -13.5v-28q0 -8 -5.5 -13.5t-12.5 -5.5h-381q-8 0 -13.5 5.5t-5.5 13.5z" />
    <glyph glyph-name="twosuperior" unicode="&#xb2;" horiz-adv-x="307" 
d="M55 504q-10 0 -10 9v14l127 133q32 35 32 56q0 18 -14.5 32.5t-42.5 14.5q-32 0 -62 -30q-6 -6 -12 0l-20 21q-6 6 0 11q4 5 12 12.5t33.5 20t51.5 12.5q52 0 80 -25t28 -64t-49 -90l-81 -83h121q9 0 9 -10v-25q0 -9 -9 -9h-194z" />
    <glyph glyph-name="threesuperior" unicode="&#xb3;" horiz-adv-x="298" 
d="M145 494q-65 0 -103 41q-6 6 1 11l21 20q8 4 13 -1q39 -26 66 -26q24 0 42 12.5t18 32.5t-18.5 34t-54.5 14h-31q-10 0 -10 9v25q0 9 10 9h31q32 0 48.5 12.5t16.5 31.5q0 20 -16 32.5t-38 12.5q-32 0 -56 -24q-6 -6 -13 0l-20 18q-8 6 0 12q38 40 93 40q45 0 75 -23
t30 -60q0 -24 -16 -43t-36 -27v-2q22 -8 41.5 -28.5t19.5 -46.5q0 -37 -31.5 -61.5t-82.5 -24.5z" />
    <glyph glyph-name="acute" unicode="&#xb4;" horiz-adv-x="302" 
d="M83 561l-10 22q-6 13 6 19l150 84q4 4 13.5 3.5t12.5 -6.5l18 -36q8 -16 -6 -21l-161 -67q-18 -8 -23 2z" />
    <glyph glyph-name="mu" unicode="&#xb5;" horiz-adv-x="505" 
d="M142 10v-291q0 -7 -6 -13t-13 -6h-31q-8 0 -13.5 6t-5.5 13v662q0 7 5.5 13t13.5 6h32q8 0 13.5 -6t5.5 -13v-211q0 -56 23.5 -84.5t66.5 -28.5q34 0 63.5 14.5t42.5 28.5l13 14v267q0 7 6 13t13 6h31q8 0 13.5 -6t5.5 -13v-362q0 -7 -5.5 -13t-13.5 -6h-19q-13 0 -18 17
l-7 26l-5.5 -5.5t-16 -13t-26.5 -16.5t-36.5 -12.5t-45.5 -5.5q-52 0 -86 20z" />
    <glyph glyph-name="paragraph" unicode="&#xb6;" horiz-adv-x="702" 
d="M233 282q-85 0 -146.5 61t-61.5 149q0 86 56.5 147.5t137.5 61.5l442 -1q7 0 13 -6t6 -13v-20q0 -8 -5.5 -13.5t-13.5 -5.5h-111v-924q0 -8 -5.5 -13.5t-13.5 -5.5h-21q-8 0 -13.5 5.5t-5.5 13.5v924h-156v-924q0 -8 -5.5 -13.5t-13.5 -5.5h-20q-8 0 -13.5 5.5t-5.5 13.5
v564h-44z" />
    <glyph glyph-name="periodcentered" unicode="&#xb7;" horiz-adv-x="229" 
d="M114 204q-23 0 -40 17t-17 40q0 24 17 40.5t40 16.5q24 0 40.5 -16.5t16.5 -40.5q0 -23 -16.5 -40t-40.5 -17z" />
    <glyph glyph-name="cedilla" unicode="&#xb8;" horiz-adv-x="247" 
d="M57 0h54v-53q47 -6 76 -33.5t29 -69.5q0 -44 -30.5 -74t-74.5 -30q-46 0 -76 35q-14 16 0 26l14 11q14 10 23 0q17 -18 41 -18q20 0 32 13t12 34t-15 35.5t-30 19t-38 8.5q-17 3 -17 20v76z" />
    <glyph glyph-name="onesuperior" unicode="&#xb9;" horiz-adv-x="190" 
d="M90 504q-10 0 -10 9v210l-41 -11q-9 -2 -10 4l-5 17q-1 7 3 11l70 56h28q9 0 9 -9v-278q0 -9 -9 -9h-35z" />
    <glyph glyph-name="ordmasculine" unicode="&#xba;" horiz-adv-x="324" 
d="M162 394q-59 0 -91.5 41.5t-32.5 115.5q0 75 32.5 116.5t91.5 41.5t91.5 -41.5t32.5 -116.5q0 -74 -32.5 -115.5t-91.5 -41.5zM162 442q33 0 51 28.5t18 80.5q0 53 -18 81.5t-51 28.5t-51 -28.5t-18 -81.5q0 -52 18 -80.5t51 -28.5z" />
    <glyph glyph-name="guillemotright" unicode="&#xbb;" horiz-adv-x="415" 
d="M220 61l71 147l-74 139q-6 12 -2 21.5t17 9.5h14q11 0 18 -12l109 -148q8 -13 0 -24l-104 -155q-6 -8 -15 -8h-19q-13 0 -17 9t2 21zM72 31q-13 0 -17 9t2 21l71 147l-74 139q-6 12 -2 21.5t17 9.5h14q11 0 18 -12l109 -148q8 -13 0 -24l-104 -155q-6 -8 -15 -8h-19z" />
    <glyph glyph-name="onequarter" unicode="&#xbc;" horiz-adv-x="633" 
d="M90 27l343 663q6 10 17 10h16q11 0 16.5 -8.5t0.5 -18.5l-345 -663q-5 -10 -17 -10h-14q-11 0 -16.5 8.5t-0.5 18.5zM104 404q-10 0 -10 9v210l-41 -11q-9 -2 -10 4l-5 17q-1 7 3 11l70 56h28q9 0 9 -9v-278q0 -9 -9 -9h-35zM317 68v29l172 196q3 3 8 3h21q10 0 10 -9
v-185h41q9 0 9 -8v-26q0 -8 -9 -8h-41v-51q0 -9 -10 -9h-32q-10 0 -10 9v50h-150q-9 0 -9 9zM372 103h106v118z" />
    <glyph glyph-name="onehalf" unicode="&#xbd;" horiz-adv-x="626" 
d="M90 27l343 663q6 10 17 10h16q11 0 16.5 -8.5t0.5 -18.5l-345 -663q-5 -10 -17 -10h-14q-11 0 -16.5 8.5t-0.5 18.5zM104 404q-10 0 -10 9v210l-41 -11q-9 -2 -10 4l-5 17q-1 7 3 11l70 56h28q9 0 9 -9v-278q0 -9 -9 -9h-35zM347 9v14l127 133q32 35 32 56
q0 18 -14.5 32.5t-42.5 14.5q-32 0 -62 -30q-6 -6 -12 0l-20 21q-6 6 0 11q4 5 12 12.5t33.5 20t51.5 12.5q52 0 80 -25t28 -64t-49 -90l-81 -83h121q9 0 9 -10v-25q0 -9 -9 -9h-194q-10 0 -10 9z" />
    <glyph glyph-name="threequarters" unicode="&#xbe;" horiz-adv-x="678" 
d="M148 394q-65 0 -103 41q-6 6 1 11l21 20q8 4 13 -1q39 -26 66 -26q24 0 42 12.5t18 32.5t-18.5 34t-54.5 14h-31q-10 0 -10 9v25q0 9 10 9h31q32 0 48.5 12.5t16.5 31.5q0 20 -16 32.5t-38 12.5q-32 0 -56 -24q-6 -6 -13 0l-20 18q-8 6 0 12q38 40 93 40q45 0 75 -23
t30 -60q0 -24 -16 -43t-36 -27v-2q22 -8 41.5 -28.5t19.5 -46.5q0 -37 -31.5 -61.5t-82.5 -24.5zM135 27l343 663q6 10 17 10h16q11 0 16.5 -8.5t0.5 -18.5l-345 -663q-5 -10 -17 -10h-14q-11 0 -16.5 8.5t-0.5 18.5zM362 68v29l172 196q3 3 8 3h21q10 0 10 -9v-185h41
q9 0 9 -8v-26q0 -8 -9 -8h-41v-51q0 -9 -10 -9h-32q-10 0 -10 9v50h-150q-9 0 -9 9zM417 103h106v118z" />
    <glyph glyph-name="questiondown" unicode="&#xbf;" horiz-adv-x="244" 
d="M129 296q-24 0 -40.5 16.5t-16.5 40.5q0 23 16.5 40t40.5 17q23 0 40 -17t17 -40q0 -24 -17 -40.5t-40 -16.5zM93 67v41q0 20 21 20h27q8 0 13.5 -5.5t5.5 -13.5v-42q0 -34 -15.5 -59.5t-37.5 -42l-44 -32t-37.5 -39t-15.5 -54.5q0 -37 26 -62.5t73 -25.5q13 0 25 1.5
t23 5t19.5 6.5t17 9t14 9t13 10t10 9.5l9.5 9.5l7 8q13 13 26 1l19 -17q12 -10 0 -26q-2 -4 -7 -9.5t-21.5 -21t-35.5 -27t-51.5 -21t-67.5 -9.5q-78 0 -126 42t-48 111q0 36 16.5 65t39.5 47.5t46 34.5t39.5 35.5t16.5 41.5z" />
    <glyph glyph-name="Agrave" unicode="&#xc0;" horiz-adv-x="663" 
d="M23 0q-11 0 -16.5 8t-0.5 18l304 673q6 11 17 11h10q11 0 17 -11l302 -673q5 -10 -0.5 -18t-16.5 -8h-40q-13 0 -17 11l-74 165h-355l-73 -165q-4 -11 -17 -11h-40zM181 238h300l-146 328h-8zM399 781l-161 67q-14 5 -6 21l18 36q3 6 12.5 6.5t13.5 -3.5l150 -84
q12 -6 6 -19l-10 -22q-5 -10 -23 -2z" />
    <glyph glyph-name="Aacute" unicode="&#xc1;" horiz-adv-x="663" 
d="M23 0q-11 0 -16.5 8t-0.5 18l304 673q6 11 17 11h10q11 0 17 -11l302 -673q5 -10 -0.5 -18t-16.5 -8h-40q-13 0 -17 11l-74 165h-355l-73 -165q-4 -11 -17 -11h-40zM181 238h300l-146 328h-8zM241 783l-10 22q-6 13 6 19l150 84q4 4 13.5 3.5t12.5 -6.5l18 -36
q8 -16 -6 -21l-161 -67q-18 -8 -23 2z" />
    <glyph glyph-name="Acircumflex" unicode="&#xc2;" horiz-adv-x="663" 
d="M23 0q-11 0 -16.5 8t-0.5 18l304 673q6 11 17 11h10q11 0 17 -11l302 -673q5 -10 -0.5 -18t-16.5 -8h-40q-13 0 -17 11l-74 165h-355l-73 -165q-4 -11 -17 -11h-40zM181 238h300l-146 328h-8zM207 775l-14 18q-7 10 6 19l120 94q5 4 13 4t13 -4l120 -94q13 -9 6 -19
q-2 -2 -5.5 -8t-6 -9t-6.5 -6.5t-8.5 -3t-10.5 4.5l-102 70l-102 -68q-15 -10 -23 2z" />
    <glyph glyph-name="Atilde" unicode="&#xc3;" horiz-adv-x="663" 
d="M23 0q-11 0 -16.5 8t-0.5 18l304 673q6 11 17 11h10q11 0 17 -11l302 -673q5 -10 -0.5 -18t-16.5 -8h-40q-13 0 -17 11l-74 165h-355l-73 -165q-4 -11 -17 -11h-40zM181 238h300l-146 328h-8zM207 795l-18 9q-11 6 -4 22q0 1 6 15t11.5 23t15.5 21t25 18.5t34 6.5
q26 0 46.5 -18.5t36 -37t27.5 -18.5q30 0 45 51q5 16 23 8l16 -8q10 -5 4 -26q-28 -81 -89 -81q-24 0 -45.5 19t-37.5 37.5t-27 18.5q-12 0 -22 -9t-13.5 -17.5t-8.5 -23.5q-6 -20 -25 -10z" />
    <glyph glyph-name="Adieresis" unicode="&#xc4;" horiz-adv-x="663" 
d="M23 0q-11 0 -16.5 8t-0.5 18l304 673q6 11 17 11h10q11 0 17 -11l302 -673q5 -10 -0.5 -18t-16.5 -8h-40q-13 0 -17 11l-74 165h-355l-73 -165q-4 -11 -17 -11h-40zM181 238h300l-146 328h-8zM436 792q-20 0 -33.5 14t-13.5 33q0 20 13.5 34t33.5 14t34 -14t14 -34
t-14 -33.5t-34 -13.5zM225 792q-19 0 -33 14t-14 33q0 20 13.5 34t33.5 14t34 -14t14 -34t-14 -33.5t-34 -13.5z" />
    <glyph glyph-name="Aring" unicode="&#xc5;" horiz-adv-x="663" 
d="M23 0q-11 0 -16.5 8t-0.5 18l304 673q6 11 17 11h10q11 0 17 -11l302 -673q5 -10 -0.5 -18t-16.5 -8h-40q-13 0 -17 11l-74 165h-355l-73 -165q-4 -11 -17 -11h-40zM181 238h300l-146 328h-8zM331 758q-46 0 -77.5 31.5t-31.5 77.5t31.5 77.5t77.5 31.5q45 0 77 -31.5
t32 -77.5t-32 -77.5t-77 -31.5zM331 806q24 0 41.5 18.5t17.5 42.5t-17.5 41.5t-41.5 17.5t-42.5 -17.5t-18.5 -41.5t18.5 -42.5t42.5 -18.5z" />
    <glyph glyph-name="AE" unicode="&#xc6;" horiz-adv-x="897" 
d="M6 0q-11 0 -14.5 8t2.5 18l401 643q15 24 25 28q7 3 19 3h381q8 0 13.5 -5.5t5.5 -13.5v-29q0 -8 -5.5 -13.5t-13.5 -5.5h-342v-244h293q7 0 13 -5.5t6 -13.5v-29q0 -8 -5.5 -13.5t-13.5 -5.5h-293v-255h342q8 0 13.5 -5.5t5.5 -13.5v-29q0 -8 -5.5 -13.5t-13.5 -5.5
h-394q-8 0 -13.5 5.5t-5.5 13.5v157h-237l-104 -165q-9 -11 -19 -11h-41zM206 238h201v328z" />
    <glyph glyph-name="Ccedilla" unicode="&#xc7;" horiz-adv-x="709" 
d="M52 349q0 150 105.5 255.5t255.5 105.5q133 0 242 -93q15 -15 1 -28l-27 -27q-11 -14 -26 1q-87 75 -191 75q-117 0 -198 -85t-81 -203q0 -117 81 -202t198 -85q41 0 77.5 11.5t58.5 25t55 38.5q13 10 24 3l30 -27q6 -5 5.5 -13t-6.5 -14q-100 -97 -243 -97v-43
q47 -6 76 -33.5t29 -69.5q0 -44 -30.5 -74t-74.5 -30q-46 0 -76 35q-14 16 0 26l14 11q14 10 23 0q17 -18 41 -18q20 0 32 13t12 34t-15 35.5t-30 19t-38 8.5q-17 3 -17 20v70q-132 19 -219.5 119.5t-87.5 235.5z" />
    <glyph glyph-name="Egrave" unicode="&#xc8;" horiz-adv-x="592" 
d="M102 19v662q0 8 5.5 13.5t13.5 5.5h394q8 0 13.5 -5.5t5.5 -13.5v-29q0 -8 -5.5 -13.5t-13.5 -5.5h-336v-244h287q8 0 13.5 -5.5t5.5 -13.5v-29q0 -8 -5.5 -13.5t-13.5 -5.5h-287v-255h336q8 0 13.5 -5.5t5.5 -13.5v-29q0 -8 -5.5 -13.5t-13.5 -5.5h-394q-8 0 -13.5 5.5
t-5.5 13.5zM394 781l-161 67q-14 5 -6 21l18 36q3 6 12.5 6.5t13.5 -3.5l150 -84q12 -6 6 -19l-10 -22q-5 -10 -23 -2z" />
    <glyph glyph-name="Eacute" unicode="&#xc9;" horiz-adv-x="592" 
d="M102 19v662q0 8 5.5 13.5t13.5 5.5h394q8 0 13.5 -5.5t5.5 -13.5v-29q0 -8 -5.5 -13.5t-13.5 -5.5h-336v-244h287q8 0 13.5 -5.5t5.5 -13.5v-29q0 -8 -5.5 -13.5t-13.5 -5.5h-287v-255h336q8 0 13.5 -5.5t5.5 -13.5v-29q0 -8 -5.5 -13.5t-13.5 -5.5h-394q-8 0 -13.5 5.5
t-5.5 13.5zM237 783l-10 22q-6 13 6 19l150 84q4 4 13.5 3.5t12.5 -6.5l18 -36q8 -16 -6 -21l-161 -67q-18 -8 -23 2z" />
    <glyph glyph-name="Ecircumflex" unicode="&#xca;" horiz-adv-x="592" 
d="M102 19v662q0 8 5.5 13.5t13.5 5.5h394q8 0 13.5 -5.5t5.5 -13.5v-29q0 -8 -5.5 -13.5t-13.5 -5.5h-336v-244h287q8 0 13.5 -5.5t5.5 -13.5v-29q0 -8 -5.5 -13.5t-13.5 -5.5h-287v-255h336q8 0 13.5 -5.5t5.5 -13.5v-29q0 -8 -5.5 -13.5t-13.5 -5.5h-394q-8 0 -13.5 5.5
t-5.5 13.5zM192 775l-14 18q-7 10 6 19l120 94q5 4 13 4t13 -4l120 -94q13 -9 6 -19q-2 -2 -5.5 -8t-6 -9t-6.5 -6.5t-8.5 -3t-10.5 4.5l-102 70l-102 -68q-15 -10 -23 2z" />
    <glyph glyph-name="Edieresis" unicode="&#xcb;" horiz-adv-x="592" 
d="M102 19v662q0 8 5.5 13.5t13.5 5.5h394q8 0 13.5 -5.5t5.5 -13.5v-29q0 -8 -5.5 -13.5t-13.5 -5.5h-336v-244h287q8 0 13.5 -5.5t5.5 -13.5v-29q0 -8 -5.5 -13.5t-13.5 -5.5h-287v-255h336q8 0 13.5 -5.5t5.5 -13.5v-29q0 -8 -5.5 -13.5t-13.5 -5.5h-394q-8 0 -13.5 5.5
t-5.5 13.5zM423 792q-19 0 -33 14t-14 33q0 20 13.5 34t33.5 14t34 -14t14 -34t-14 -33.5t-34 -13.5zM212 792q-20 0 -33.5 14t-13.5 33q0 20 13.5 34t33.5 14t34 -14t14 -34t-14 -33.5t-34 -13.5z" />
    <glyph glyph-name="Igrave" unicode="&#xcc;" horiz-adv-x="282" 
d="M102 19v662q0 7 6 13t13 6h40q7 0 13 -6t6 -13v-662q0 -7 -6 -13t-13 -6h-40q-7 0 -13 6t-6 13zM208 781l-161 67q-14 5 -6 21l18 36q3 6 12.5 6.5t13.5 -3.5l150 -84q12 -6 6 -19l-10 -22q-5 -10 -23 -2z" />
    <glyph glyph-name="Iacute" unicode="&#xcd;" horiz-adv-x="282" 
d="M102 19v662q0 7 6 13t13 6h40q7 0 13 -6t6 -13v-662q0 -7 -6 -13t-13 -6h-40q-7 0 -13 6t-6 13zM51 783l-10 22q-6 13 6 19l150 84q4 4 13.5 3.5t12.5 -6.5l18 -36q8 -16 -6 -21l-161 -67q-18 -8 -23 2z" />
    <glyph glyph-name="Icircumflex" unicode="&#xce;" horiz-adv-x="282" 
d="M102 19v662q0 7 6 13t13 6h40q7 0 13 -6t6 -13v-662q0 -7 -6 -13t-13 -6h-40q-7 0 -13 6t-6 13zM16 775l-14 18q-7 10 6 19l120 94q5 4 13 4t13 -4l120 -94q13 -9 6 -19q-2 -2 -5.5 -8t-6 -9t-6.5 -6.5t-8.5 -3t-10.5 4.5l-102 70l-102 -68q-15 -10 -23 2z" />
    <glyph glyph-name="Idieresis" unicode="&#xcf;" horiz-adv-x="282" 
d="M102 19v662q0 7 6 13t13 6h40q7 0 13 -6t6 -13v-662q0 -7 -6 -13t-13 -6h-40q-7 0 -13 6t-6 13zM247 792q-19 0 -33 14t-14 33q0 20 13.5 34t33.5 14t34 -14t14 -34t-14 -33.5t-34 -13.5zM36 792q-20 0 -33.5 14t-13.5 33q0 20 13.5 34t33.5 14t34 -14t14 -34t-14 -33.5
t-34 -13.5z" />
    <glyph glyph-name="Eth" unicode="&#xd0;" horiz-adv-x="751" 
d="M106 19v305h-29q-7 0 -12.5 5.5t-5.5 13.5v7q0 8 5.5 13.5t12.5 5.5h29v312q0 8 5.5 13.5t12.5 5.5h224q145 0 248 -102.5t103 -246.5q0 -145 -103 -248t-248 -103h-224q-7 0 -12.5 5.5t-5.5 13.5zM182 69h150q123 0 203 79.5t80 202.5t-80 202t-203 79h-150v-263h211
q8 0 13.5 -5.5t5.5 -13.5v-8q0 -8 -5.5 -13t-13.5 -5h-211v-255z" />
    <glyph glyph-name="Ntilde" unicode="&#xd1;" horiz-adv-x="774" 
d="M102 19v673q0 7 5.5 12.5t13.5 5.5h25l451 -562h2v533q0 8 5.5 13.5t13.5 5.5h35q7 0 13 -6t6 -13v-673q0 -7 -5.5 -12.5t-13.5 -5.5h-18l-459 573h-1v-544q0 -8 -5.5 -13.5t-13.5 -5.5h-35q-7 0 -13 6t-6 13zM274 795l-18 9q-11 6 -4 22q0 1 6 15t11.5 23t15.5 21
t25 18.5t34 6.5q26 0 46.5 -18.5t36 -37t27.5 -18.5q30 0 45 51q5 16 23 8l16 -8q10 -5 4 -26q-28 -81 -89 -81q-24 0 -45.5 19t-37.5 37.5t-27 18.5q-12 0 -22 -9t-13.5 -17.5t-8.5 -23.5q-6 -20 -25 -10z" />
    <glyph glyph-name="Ograve" unicode="&#xd2;" horiz-adv-x="821" 
d="M51 349q0 150 104.5 255.5t254.5 105.5t255 -105.5t105 -255.5t-105 -254.5t-255 -104.5t-254.5 104.5t-104.5 254.5zM121 349q0 -119 85 -204t204 -85t204.5 85t85.5 204t-85.5 205t-204.5 86t-204 -86t-85 -205zM487 781l-161 67q-14 5 -6 21l18 36q3 6 12.5 6.5
t13.5 -3.5l150 -84q12 -6 6 -19l-10 -22q-5 -10 -23 -2z" />
    <glyph glyph-name="Oacute" unicode="&#xd3;" horiz-adv-x="821" 
d="M51 349q0 150 104.5 255.5t254.5 105.5t255 -105.5t105 -255.5t-105 -254.5t-255 -104.5t-254.5 104.5t-104.5 254.5zM121 349q0 -119 85 -204t204 -85t204.5 85t85.5 204t-85.5 205t-204.5 86t-204 -86t-85 -205zM330 783l-10 22q-6 13 6 19l150 84q4 4 13.5 3.5
t12.5 -6.5l18 -36q8 -16 -6 -21l-161 -67q-18 -8 -23 2z" />
    <glyph glyph-name="Ocircumflex" unicode="&#xd4;" horiz-adv-x="821" 
d="M51 349q0 150 104.5 255.5t254.5 105.5t255 -105.5t105 -255.5t-105 -254.5t-255 -104.5t-254.5 104.5t-104.5 254.5zM121 349q0 -119 85 -204t204 -85t204.5 85t85.5 204t-85.5 205t-204.5 86t-204 -86t-85 -205zM285 775l-14 18q-7 10 6 19l120 94q5 4 13 4t13 -4
l120 -94q13 -9 6 -19q-2 -2 -5.5 -8t-6 -9t-6.5 -6.5t-8.5 -3t-10.5 4.5l-102 70l-102 -68q-15 -10 -23 2z" />
    <glyph glyph-name="Otilde" unicode="&#xd5;" horiz-adv-x="821" 
d="M51 349q0 150 104.5 255.5t254.5 105.5t255 -105.5t105 -255.5t-105 -254.5t-255 -104.5t-254.5 104.5t-104.5 254.5zM121 349q0 -119 85 -204t204 -85t204.5 85t85.5 204t-85.5 205t-204.5 86t-204 -86t-85 -205zM285 795l-18 9q-11 6 -4 22q0 1 6 15t11.5 23t15.5 21
t25 18.5t34 6.5q26 0 46.5 -18.5t36 -37t27.5 -18.5q30 0 45 51q5 16 23 8l16 -8q10 -5 4 -26q-28 -81 -89 -81q-24 0 -45.5 19t-37.5 37.5t-27 18.5q-12 0 -22 -9t-13.5 -17.5t-8.5 -23.5q-6 -20 -25 -10z" />
    <glyph glyph-name="Odieresis" unicode="&#xd6;" horiz-adv-x="821" 
d="M51 349q0 150 104.5 255.5t254.5 105.5t255 -105.5t105 -255.5t-105 -254.5t-255 -104.5t-254.5 104.5t-104.5 254.5zM121 349q0 -119 85 -204t204 -85t204.5 85t85.5 204t-85.5 205t-204.5 86t-204 -86t-85 -205zM516 792q-20 0 -33.5 14t-13.5 33q0 20 13.5 34t33.5 14
t34 -14t14 -34t-14 -33.5t-34 -13.5zM305 792q-19 0 -33 14t-14 33q0 20 13.5 34t33.5 14t34 -14t14 -34t-14 -33.5t-34 -13.5z" />
    <glyph glyph-name="multiply" unicode="&#xd7;" horiz-adv-x="481" 
d="M103 190l-20 20q-13 13 0 26l111 111l-111 111q-13 14 0 27l19 20q14 13 27 0l111 -111l112 112q12 12 26 -1l20 -20q5 -5 5.5 -13t-4.5 -13l-112 -112l112 -111q12 -14 -1 -27l-20 -19q-14 -14 -26 -1l-112 112l-111 -111q-13 -13 -26 0z" />
    <glyph glyph-name="Oslash" unicode="&#xd8;" horiz-adv-x="821" 
d="M81 22q-13 14 -1 26l61 61q-90 103 -90 240q0 150 104.5 255.5t254.5 105.5q136 0 240 -91l63 63q13 13 26 0l5 -5q13 -13 0 -26l-63 -63q89 -104 89 -239q0 -150 -105 -254.5t-255 -104.5q-137 0 -238 88l-61 -61q-5 -5 -13 -4.5t-13 5.5zM192 160l408 409
q-82 71 -190 71q-119 0 -204 -86t-85 -205q0 -107 71 -189zM223 129q80 -69 187 -69q119 0 204.5 85t85.5 204q0 108 -70 188z" />
    <glyph glyph-name="Ugrave" unicode="&#xd9;" horiz-adv-x="716" 
d="M93 258v423q0 7 5.5 13t13.5 6h38q8 0 13.5 -5.5t5.5 -13.5v-417q0 -88 51 -145.5t137 -57.5q87 0 138.5 57t51.5 144v419q0 8 5.5 13.5t13.5 5.5h38q8 0 13.5 -6t5.5 -13v-423q0 -115 -74.5 -191.5t-191.5 -76.5q-116 0 -190 76.5t-74 191.5zM423 781l-161 67
q-14 5 -6 21l18 36q3 6 12.5 6.5t13.5 -3.5l150 -84q12 -6 6 -19l-10 -22q-5 -10 -23 -2z" />
    <glyph glyph-name="Uacute" unicode="&#xda;" horiz-adv-x="716" 
d="M93 258v423q0 7 5.5 13t13.5 6h38q8 0 13.5 -5.5t5.5 -13.5v-417q0 -88 51 -145.5t137 -57.5q87 0 138.5 57t51.5 144v419q0 8 5.5 13.5t13.5 5.5h38q8 0 13.5 -6t5.5 -13v-423q0 -115 -74.5 -191.5t-191.5 -76.5q-116 0 -190 76.5t-74 191.5zM266 783l-10 22q-6 13 6 19
l150 84q4 4 13.5 3.5t12.5 -6.5l18 -36q8 -16 -6 -21l-161 -67q-18 -8 -23 2z" />
    <glyph glyph-name="Ucircumflex" unicode="&#xdb;" horiz-adv-x="716" 
d="M93 258v423q0 7 5.5 13t13.5 6h38q8 0 13.5 -5.5t5.5 -13.5v-417q0 -88 51 -145.5t137 -57.5q87 0 138.5 57t51.5 144v419q0 8 5.5 13.5t13.5 5.5h38q8 0 13.5 -6t5.5 -13v-423q0 -115 -74.5 -191.5t-191.5 -76.5q-116 0 -190 76.5t-74 191.5zM228 775l-14 18q-7 10 6 19
l120 94q5 4 13 4t13 -4l120 -94q13 -9 6 -19q-2 -2 -5.5 -8t-6 -9t-6.5 -6.5t-8.5 -3t-10.5 4.5l-102 70l-102 -68q-15 -10 -23 2z" />
    <glyph glyph-name="Udieresis" unicode="&#xdc;" horiz-adv-x="716" 
d="M93 258v423q0 7 5.5 13t13.5 6h38q8 0 13.5 -5.5t5.5 -13.5v-417q0 -88 51 -145.5t137 -57.5q87 0 138.5 57t51.5 144v419q0 8 5.5 13.5t13.5 5.5h38q8 0 13.5 -6t5.5 -13v-423q0 -115 -74.5 -191.5t-191.5 -76.5q-116 0 -190 76.5t-74 191.5zM462 792q-20 0 -33.5 14
t-13.5 33q0 20 13.5 34t33.5 14t34 -14t14 -34t-14 -33.5t-34 -13.5zM251 792q-19 0 -33 14t-14 33q0 20 13.5 34t33.5 14t34 -14t14 -34t-14 -33.5t-34 -13.5z" />
    <glyph glyph-name="Yacute" unicode="&#xdd;" horiz-adv-x="565" 
d="M243 19v318l-241 334q-6 10 -1 19.5t17 9.5h47q9 0 16 -9l202 -279l202 279q7 9 16 9h47q12 0 17 -9.5t-1 -19.5l-244 -333v-319q0 -7 -6 -13t-13 -6h-39q-8 0 -13.5 5.5t-5.5 13.5zM193 783l-10 22q-6 13 6 19l150 84q4 4 13.5 3.5t12.5 -6.5l18 -36q8 -16 -6 -21
l-161 -67q-18 -8 -23 2z" />
    <glyph glyph-name="Thorn" unicode="&#xde;" horiz-adv-x="597" 
d="M102 19v661q0 8 5.5 14t13.5 6h38q7 0 13 -6t6 -13v-107h164q92 1 158 -64.5t66 -156.5q0 -93 -65.5 -159t-157.5 -66h-165v-109q0 -7 -6 -13t-13 -6h-38q-8 0 -13.5 5.5t-5.5 13.5zM178 202h159q62 0 107 44.5t45 108.5q0 60 -45 101.5t-107 41.5h-159v-296z" />
    <glyph glyph-name="germandbls" unicode="&#xdf;" horiz-adv-x="541" 
d="M72 19v392q0 148 53.5 223.5t156.5 75.5q71 0 119.5 -37.5t48.5 -113.5q0 -33 -14 -66.5t-30.5 -56.5t-30.5 -46.5t-14 -37.5q0 -13 23 -34.5t50 -44t50 -60.5t23 -80q0 -71 -47.5 -107t-116.5 -36q-59 0 -97 19q-19 9 -15 23l8 30q5 21 21 12q41 -23 83 -23t66.5 23
t24.5 60q0 24 -15.5 48t-38 44l-44.5 39.5t-37.5 41t-15.5 42.5q0 31 48 104t48 103q0 43 -30 67.5t-69 24.5q-138 0 -138 -238v-391q0 -7 -6 -13t-13 -6h-32q-7 0 -13 6t-6 13z" />
    <glyph glyph-name="agrave" unicode="&#xe0;" horiz-adv-x="419" 
d="M42 121q0 59 42.5 96t117.5 37q19 0 40.5 -3t33.5 -7l11 -3q1 60 -11.5 84t-53.5 24q-63 0 -120 -22q-14 -6 -19 10l-8 25q-5 15 11 22q6 3 21.5 8t49.5 11.5t68 6.5q74 0 100.5 -38.5t26.5 -130.5v-222q0 -7 -6 -13t-13 -6h-19q-12 0 -17 15l-8 27q-52 -52 -124 -52
q-53 0 -88 36t-35 95zM106 121q0 -31 19 -51t51 -20q35 0 65 17.5t45 38.5v79q-27 16 -84 16q-43 0 -69.5 -21t-26.5 -59zM289 559l-161 67q-14 5 -6 21l18 36q3 6 12.5 6.5t13.5 -3.5l150 -84q12 -6 6 -19l-10 -22q-5 -10 -23 -2z" />
    <glyph glyph-name="aacute" unicode="&#xe1;" horiz-adv-x="419" 
d="M42 121q0 59 42.5 96t117.5 37q19 0 40.5 -3t33.5 -7l11 -3q1 60 -11.5 84t-53.5 24q-63 0 -120 -22q-14 -6 -19 10l-8 25q-5 15 11 22q6 3 21.5 8t49.5 11.5t68 6.5q74 0 100.5 -38.5t26.5 -130.5v-222q0 -7 -6 -13t-13 -6h-19q-12 0 -17 15l-8 27q-52 -52 -124 -52
q-53 0 -88 36t-35 95zM106 121q0 -31 19 -51t51 -20q35 0 65 17.5t45 38.5v79q-27 16 -84 16q-43 0 -69.5 -21t-26.5 -59zM124 561l-10 22q-6 13 6 19l150 84q4 4 13.5 3.5t12.5 -6.5l18 -36q8 -16 -6 -21l-161 -67q-18 -8 -23 2z" />
    <glyph glyph-name="acircumflex" unicode="&#xe2;" horiz-adv-x="419" 
d="M42 121q0 59 42.5 96t117.5 37q19 0 40.5 -3t33.5 -7l11 -3q1 60 -11.5 84t-53.5 24q-63 0 -120 -22q-14 -6 -19 10l-8 25q-5 15 11 22q6 3 21.5 8t49.5 11.5t68 6.5q74 0 100.5 -38.5t26.5 -130.5v-222q0 -7 -6 -13t-13 -6h-19q-12 0 -17 15l-8 27q-52 -52 -124 -52
q-53 0 -88 36t-35 95zM106 121q0 -31 19 -51t51 -20q35 0 65 17.5t45 38.5v79q-27 16 -84 16q-43 0 -69.5 -21t-26.5 -59zM81 555l-14 18q-7 10 6 19l120 94q5 4 13 4t13 -4l120 -94q13 -9 6 -19q-2 -2 -5.5 -8t-6 -9t-6.5 -6.5t-8.5 -3t-10.5 4.5l-102 70l-102 -68
q-15 -10 -23 2z" />
    <glyph glyph-name="atilde" unicode="&#xe3;" horiz-adv-x="419" 
d="M42 121q0 59 42.5 96t117.5 37q19 0 40.5 -3t33.5 -7l11 -3q1 60 -11.5 84t-53.5 24q-63 0 -120 -22q-14 -6 -19 10l-8 25q-5 15 11 22q6 3 21.5 8t49.5 11.5t68 6.5q74 0 100.5 -38.5t26.5 -130.5v-222q0 -7 -6 -13t-13 -6h-19q-12 0 -17 15l-8 27q-52 -52 -124 -52
q-53 0 -88 36t-35 95zM106 121q0 -31 19 -51t51 -20q35 0 65 17.5t45 38.5v79q-27 16 -84 16q-43 0 -69.5 -21t-26.5 -59zM82 575l-18 9q-11 6 -4 22q0 1 6 15t11.5 23t15.5 21t25 18.5t34 6.5q26 0 46.5 -18.5t36 -37t27.5 -18.5q30 0 45 51q5 16 23 8l16 -8q10 -5 4 -26
q-28 -81 -89 -81q-24 0 -45.5 19t-37.5 37.5t-27 18.5q-12 0 -22 -9t-13.5 -17.5t-8.5 -23.5q-6 -20 -25 -10z" />
    <glyph glyph-name="adieresis" unicode="&#xe4;" horiz-adv-x="419" 
d="M42 121q0 59 42.5 96t117.5 37q19 0 40.5 -3t33.5 -7l11 -3q1 60 -11.5 84t-53.5 24q-63 0 -120 -22q-14 -6 -19 10l-8 25q-5 15 11 22q6 3 21.5 8t49.5 11.5t68 6.5q74 0 100.5 -38.5t26.5 -130.5v-222q0 -7 -6 -13t-13 -6h-19q-12 0 -17 15l-8 27q-52 -52 -124 -52
q-53 0 -88 36t-35 95zM106 121q0 -31 19 -51t51 -20q35 0 65 17.5t45 38.5v79q-27 16 -84 16q-43 0 -69.5 -21t-26.5 -59zM315 585q-19 0 -33 13.5t-14 33.5t13.5 34t33.5 14t34 -14t14 -34t-14 -33.5t-34 -13.5zM122 585q-20 0 -33.5 13.5t-13.5 33.5t13.5 34t33.5 14
t34 -14t14 -34t-14 -33.5t-34 -13.5z" />
    <glyph glyph-name="aring" unicode="&#xe5;" horiz-adv-x="419" 
d="M42 121q0 59 42.5 96t117.5 37q19 0 40.5 -3t33.5 -7l11 -3q1 60 -11.5 84t-53.5 24q-63 0 -120 -22q-14 -6 -19 10l-8 25q-5 15 11 22q6 3 21.5 8t49.5 11.5t68 6.5q74 0 100.5 -38.5t26.5 -130.5v-222q0 -7 -6 -13t-13 -6h-19q-12 0 -17 15l-8 27q-52 -52 -124 -52
q-53 0 -88 36t-35 95zM106 121q0 -31 19 -51t51 -20q35 0 65 17.5t45 38.5v79q-27 16 -84 16q-43 0 -69.5 -21t-26.5 -59zM207 492q-46 0 -77.5 31.5t-31.5 77.5t31.5 77.5t77.5 31.5q45 0 77 -31.5t32 -77.5t-32 -77.5t-77 -31.5zM207 540q24 0 41.5 18.5t17.5 42.5
t-17.5 41.5t-41.5 17.5t-42.5 -17.5t-18.5 -41.5t18.5 -42.5t42.5 -18.5z" />
    <glyph glyph-name="ae" unicode="&#xe6;" horiz-adv-x="690" 
d="M43 124q0 57 39.5 93t108.5 36q24 0 46.5 -1.5t33.5 -3.5l11 -1q1 60 -9.5 82t-46.5 22q-55 0 -127 -24q-17 -5 -21 14l-5 25q-3 15 16 20q64 24 140 24q86 0 109 -55q57 55 134 55q76 0 128 -51t52 -132q0 -44 -20 -44h-280v-61q18 -31 51.5 -49t74.5 -18q53 0 99 28
q13 7 16 8t12 -6l17 -23q6 -8 6 -13t-10 -13q-61 -46 -147 -46q-98 0 -151 71q-22 -29 -61.5 -50t-84.5 -21q-59 0 -95 36.5t-36 97.5zM354 240h230q-2 46 -34.5 77t-78.5 31q-36 0 -68.5 -19t-48.5 -48v-41zM106 122q0 -36 23.5 -54t57.5 -18q30 0 56.5 15t40.5 36v89
q-29 9 -83 9q-40 0 -67.5 -20.5t-27.5 -56.5z" />
    <glyph glyph-name="ccedilla" unicode="&#xe7;" horiz-adv-x="443" 
d="M42 199q0 87 61.5 149t144.5 62q88 0 143 -70q12 -16 -4 -28l-19 -16q-4 -4 -7.5 -6t-7 -1t-4.5 1.5t-5 4.5l-5 5q-37 42 -92 42q-56 0 -94.5 -41t-38.5 -101t38 -102t94 -42q12 0 23 1.5t20.5 5.5t16 6.5t14.5 9l11 9t11 10.5l10 10q14 14 30 2l11 -8q17 -12 7 -28
q-47 -76 -138 -83v-44q47 -6 76 -33.5t29 -69.5q0 -44 -30.5 -74t-74.5 -30q-46 0 -76 35q-14 16 0 26l14 11q14 10 23 0q17 -18 41 -18q20 0 32 13t12 34t-15 35.5t-30 19t-38 8.5q-17 3 -17 20v70q-71 13 -118.5 70t-47.5 135z" />
    <glyph glyph-name="egrave" unicode="&#xe8;" horiz-adv-x="457" 
d="M42 200q0 88 54 149t142 61q79 0 130 -52t51 -131q0 -13 -2 -27q-2 -17 -18 -17h-288q3 -51 42.5 -90.5t91.5 -39.5q50 0 99 30q13 7 16 8t12 -6l17 -23q6 -8 6 -13t-10 -13q-58 -46 -147 -46q-88 0 -142 60.5t-54 149.5zM112 239h238q-2 44 -34.5 77t-77.5 33
q-50 0 -85.5 -31.5t-40.5 -78.5zM304 559l-161 67q-14 5 -6 21l18 36q3 6 12.5 6.5t13.5 -3.5l150 -84q12 -6 6 -19l-10 -22q-5 -10 -23 -2z" />
    <glyph glyph-name="eacute" unicode="&#xe9;" horiz-adv-x="457" 
d="M42 200q0 88 54 149t142 61q79 0 130 -52t51 -131q0 -13 -2 -27q-2 -17 -18 -17h-288q3 -51 42.5 -90.5t91.5 -39.5q50 0 99 30q13 7 16 8t12 -6l17 -23q6 -8 6 -13t-10 -13q-58 -46 -147 -46q-88 0 -142 60.5t-54 149.5zM112 239h238q-2 44 -34.5 77t-77.5 33
q-50 0 -85.5 -31.5t-40.5 -78.5zM144 561l-10 22q-6 13 6 19l150 84q4 4 13.5 3.5t12.5 -6.5l18 -36q8 -16 -6 -21l-161 -67q-18 -8 -23 2z" />
    <glyph glyph-name="ecircumflex" unicode="&#xea;" horiz-adv-x="457" 
d="M42 200q0 88 54 149t142 61q79 0 130 -52t51 -131q0 -13 -2 -27q-2 -17 -18 -17h-288q3 -51 42.5 -90.5t91.5 -39.5q50 0 99 30q13 7 16 8t12 -6l17 -23q6 -8 6 -13t-10 -13q-58 -46 -147 -46q-88 0 -142 60.5t-54 149.5zM112 239h238q-2 44 -34.5 77t-77.5 33
q-50 0 -85.5 -31.5t-40.5 -78.5zM115 555l-14 18q-7 10 6 19l120 94q5 4 13 4t13 -4l120 -94q13 -9 6 -19q-2 -2 -5.5 -8t-6 -9t-6.5 -6.5t-8.5 -3t-10.5 4.5l-102 70l-102 -68q-15 -10 -23 2z" />
    <glyph glyph-name="edieresis" unicode="&#xeb;" horiz-adv-x="457" 
d="M42 200q0 88 54 149t142 61q79 0 130 -52t51 -131q0 -13 -2 -27q-2 -17 -18 -17h-288q3 -51 42.5 -90.5t91.5 -39.5q50 0 99 30q13 7 16 8t12 -6l17 -23q6 -8 6 -13t-10 -13q-58 -46 -147 -46q-88 0 -142 60.5t-54 149.5zM112 239h238q-2 44 -34.5 77t-77.5 33
q-50 0 -85.5 -31.5t-40.5 -78.5zM333 585q-19 0 -33 13.5t-14 33.5t13.5 34t33.5 14t34 -14t14 -34t-14 -33.5t-34 -13.5zM140 585q-20 0 -33.5 13.5t-13.5 33.5t13.5 34t33.5 14t34 -14t14 -34t-14 -33.5t-34 -13.5z" />
    <glyph glyph-name="igrave" unicode="&#xec;" horiz-adv-x="211" 
d="M71 19v362q0 7 5.5 13t13.5 6h31q7 0 13 -6t6 -13v-362q0 -7 -6 -13t-13 -6h-31q-8 0 -13.5 6t-5.5 13zM173 559l-161 67q-14 5 -6 21l18 36q3 6 12.5 6.5t13.5 -3.5l150 -84q12 -6 6 -19l-10 -22q-5 -10 -23 -2z" />
    <glyph glyph-name="iacute" unicode="&#xed;" horiz-adv-x="211" 
d="M71 19v362q0 7 5.5 13t13.5 6h31q7 0 13 -6t6 -13v-362q0 -7 -6 -13t-13 -6h-31q-8 0 -13.5 6t-5.5 13zM16 561l-10 22q-6 13 6 19l150 84q4 4 13.5 3.5t12.5 -6.5l18 -36q8 -16 -6 -21l-161 -67q-18 -8 -23 2z" />
    <glyph glyph-name="icircumflex" unicode="&#xee;" horiz-adv-x="211" 
d="M71 19v362q0 7 5.5 13t13.5 6h31q7 0 13 -6t6 -13v-362q0 -7 -6 -13t-13 -6h-31q-8 0 -13.5 6t-5.5 13zM-18 555l-14 18q-7 10 6 19l120 94q5 4 13 4t13 -4l120 -94q13 -9 6 -19q-2 -2 -5.5 -8t-6 -9t-6.5 -6.5t-8.5 -3t-10.5 4.5l-102 70l-102 -68q-15 -10 -23 2z" />
    <glyph glyph-name="idieresis" unicode="&#xef;" horiz-adv-x="211" 
d="M71 19v362q0 7 5.5 13t13.5 6h31q7 0 13 -6t6 -13v-362q0 -7 -6 -13t-13 -6h-31q-8 0 -13.5 6t-5.5 13zM202 585q-20 0 -33.5 13.5t-13.5 33.5t13.5 34t33.5 14t34 -14t14 -34t-14 -33.5t-34 -13.5zM9 585q-19 0 -33 13.5t-14 33.5t13.5 34t33.5 14t34 -14t14 -34
t-14 -33.5t-34 -13.5z" />
    <glyph glyph-name="eth" unicode="&#xf0;" horiz-adv-x="544" 
d="M41 219q0 97 63.5 157t151.5 60q38 0 76 -11t57 -23l19 -11q-24 90 -128 172l-97 -56q-7 -4 -14.5 -1.5t-10.5 8.5l-4 7q-10 16 6 25l80 46q-57 36 -99 53q-17 7 -8 24l13 27q5 12 20 7q73 -28 138 -74l70 40q17 10 26 -7l4 -7q9 -14 -7 -25l-54 -31q152 -133 152 -324
q0 -127 -58.5 -206t-174.5 -79q-96 0 -158.5 66.5t-62.5 162.5zM112 215q0 -65 43.5 -112t106.5 -47q49 0 85 25t52 62.5t23.5 81t-1.5 81.5q-7 7 -20.5 18t-55 29t-82.5 18q-63 0 -107 -45.5t-44 -110.5z" />
    <glyph glyph-name="ntilde" unicode="&#xf1;" horiz-adv-x="495" 
d="M71 19v362q0 7 5.5 13t13.5 6h19q13 0 16 -12l9 -31q6 6 18 15t48.5 23.5t73.5 14.5q155 0 155 -180v-211q0 -7 -5.5 -13t-13.5 -6h-32q-8 0 -13.5 6t-5.5 13v211q0 56 -23.5 84.5t-66.5 28.5q-33 0 -65.5 -14.5t-47.5 -28.5l-16 -14v-267q0 -7 -6 -13t-13 -6h-31
q-8 0 -13.5 6t-5.5 13zM127 575l-18 9q-11 6 -4 22q0 1 6 15t11.5 23t15.5 21t25 18.5t34 6.5q26 0 46.5 -18.5t36 -37t27.5 -18.5q30 0 45 51q5 16 23 8l16 -8q10 -5 4 -26q-28 -81 -89 -81q-24 0 -45.5 19t-37.5 37.5t-27 18.5q-12 0 -22 -9t-13.5 -17.5t-8.5 -23.5
q-6 -20 -25 -10z" />
    <glyph glyph-name="ograve" unicode="&#xf2;" 
d="M42 201q0 85 58 147t141 62t141 -62t58 -147q0 -87 -58 -149t-141 -62t-141 62t-58 149zM111 201q0 -61 37.5 -103.5t92.5 -42.5t92.5 42.5t37.5 103.5q0 59 -37.5 101t-92.5 42t-92.5 -42t-37.5 -101zM308 559l-161 67q-14 5 -6 21l18 36q3 6 12.5 6.5t13.5 -3.5
l150 -84q12 -6 6 -19l-10 -22q-5 -10 -23 -2z" />
    <glyph glyph-name="oacute" unicode="&#xf3;" 
d="M42 201q0 85 58 147t141 62t141 -62t58 -147q0 -87 -58 -149t-141 -62t-141 62t-58 149zM111 201q0 -61 37.5 -103.5t92.5 -42.5t92.5 42.5t37.5 103.5q0 59 -37.5 101t-92.5 42t-92.5 -42t-37.5 -101zM151 561l-10 22q-6 13 6 19l150 84q4 4 13.5 3.5t12.5 -6.5l18 -36
q8 -16 -6 -21l-161 -67q-18 -8 -23 2z" />
    <glyph glyph-name="ocircumflex" unicode="&#xf4;" 
d="M42 201q0 85 58 147t141 62t141 -62t58 -147q0 -87 -58 -149t-141 -62t-141 62t-58 149zM111 201q0 -61 37.5 -103.5t92.5 -42.5t92.5 42.5t37.5 103.5q0 59 -37.5 101t-92.5 42t-92.5 -42t-37.5 -101zM116 555l-14 18q-7 10 6 19l120 94q5 4 13 4t13 -4l120 -94
q13 -9 6 -19q-2 -2 -5.5 -8t-6 -9t-6.5 -6.5t-8.5 -3t-10.5 4.5l-102 70l-102 -68q-15 -10 -23 2z" />
    <glyph glyph-name="otilde" unicode="&#xf5;" 
d="M42 201q0 85 58 147t141 62t141 -62t58 -147q0 -87 -58 -149t-141 -62t-141 62t-58 149zM111 201q0 -61 37.5 -103.5t92.5 -42.5t92.5 42.5t37.5 103.5q0 59 -37.5 101t-92.5 42t-92.5 -42t-37.5 -101zM117 575l-18 9q-11 6 -4 22q0 1 6 15t11.5 23t15.5 21t25 18.5
t34 6.5q26 0 46.5 -18.5t36 -37t27.5 -18.5q30 0 45 51q5 16 23 8l16 -8q10 -5 4 -26q-28 -81 -89 -81q-24 0 -45.5 19t-37.5 37.5t-27 18.5q-12 0 -22 -9t-13.5 -17.5t-8.5 -23.5q-6 -20 -25 -10z" />
    <glyph glyph-name="odieresis" unicode="&#xf6;" 
d="M42 201q0 85 58 147t141 62t141 -62t58 -147q0 -87 -58 -149t-141 -62t-141 62t-58 149zM111 201q0 -61 37.5 -103.5t92.5 -42.5t92.5 42.5t37.5 103.5q0 59 -37.5 101t-92.5 42t-92.5 -42t-37.5 -101zM336 585q-20 0 -33.5 13.5t-13.5 33.5t13.5 34t33.5 14t34 -14
t14 -34t-14 -33.5t-34 -13.5zM143 585q-19 0 -33 13.5t-14 33.5t13.5 34t33.5 14t34 -14t14 -34t-14 -33.5t-34 -13.5z" />
    <glyph glyph-name="divide" unicode="&#xf7;" horiz-adv-x="538" 
d="M266 472q-23 0 -40 17t-17 40q0 24 17 40.5t40 16.5q24 0 40.5 -16.5t16.5 -40.5q0 -23 -16.5 -40t-40.5 -17zM79 314q-7 0 -13 6t-6 13v28q0 7 6 13t13 6h381q7 0 12.5 -5.5t5.5 -13.5v-28q0 -8 -5.5 -13.5t-12.5 -5.5h-381zM209 171q0 24 17 40.5t40 16.5
q24 0 40.5 -16.5t16.5 -40.5q0 -23 -16.5 -40t-40.5 -17q-23 0 -40 17t-17 40z" />
    <glyph glyph-name="oslash" unicode="&#xf8;" horiz-adv-x="480" 
d="M68 29q-14 13 -1 26l16 16q-40 58 -40 131q0 85 57.5 146.5t140.5 61.5q73 0 128 -50l21 21q14 14 27 0l5 -5q6 -5 6 -13t-6 -13l-23 -23q40 -56 40 -125q0 -87 -57.5 -149.5t-140.5 -62.5q-74 0 -128 48l-14 -14q-12 -13 -27 0zM132 120l190 193q-34 31 -81 31
q-55 0 -92 -41.5t-37 -100.5q0 -47 20 -82zM160 85q35 -30 81 -30q54 0 91.5 43t37.5 104q0 42 -20 76z" />
    <glyph glyph-name="ugrave" unicode="&#xf9;" horiz-adv-x="485" 
d="M66 171v210q0 7 6 13t13 6h32q7 0 13 -6t6 -13v-211q0 -56 23.5 -84.5t66.5 -28.5q34 0 63.5 14.5t42.5 28.5l13 14v267q0 7 5.5 13t13.5 6h31q7 0 13 -6t6 -13v-362q0 -7 -6 -13t-13 -6h-19q-13 0 -18 17l-7 26l-5.5 -5.5t-16 -13t-26.5 -16.5t-36.5 -12.5t-45.5 -5.5
q-155 0 -155 181zM315 559l-161 67q-14 5 -6 21l18 36q3 6 12.5 6.5t13.5 -3.5l150 -84q12 -6 6 -19l-10 -22q-5 -10 -23 -2z" />
    <glyph glyph-name="uacute" unicode="&#xfa;" horiz-adv-x="485" 
d="M66 171v210q0 7 6 13t13 6h32q7 0 13 -6t6 -13v-211q0 -56 23.5 -84.5t66.5 -28.5q34 0 63.5 14.5t42.5 28.5l13 14v267q0 7 5.5 13t13.5 6h31q7 0 13 -6t6 -13v-362q0 -7 -6 -13t-13 -6h-19q-13 0 -18 17l-7 26l-5.5 -5.5t-16 -13t-26.5 -16.5t-36.5 -12.5t-45.5 -5.5
q-155 0 -155 181zM157 561l-10 22q-6 13 6 19l150 84q4 4 13.5 3.5t12.5 -6.5l18 -36q8 -16 -6 -21l-161 -67q-18 -8 -23 2z" />
    <glyph glyph-name="ucircumflex" unicode="&#xfb;" horiz-adv-x="485" 
d="M66 171v210q0 7 6 13t13 6h32q7 0 13 -6t6 -13v-211q0 -56 23.5 -84.5t66.5 -28.5q34 0 63.5 14.5t42.5 28.5l13 14v267q0 7 5.5 13t13.5 6h31q7 0 13 -6t6 -13v-362q0 -7 -6 -13t-13 -6h-19q-13 0 -18 17l-7 26l-5.5 -5.5t-16 -13t-26.5 -16.5t-36.5 -12.5t-45.5 -5.5
q-155 0 -155 181zM121 555l-14 18q-7 10 6 19l120 94q5 4 13 4t13 -4l120 -94q13 -9 6 -19q-2 -2 -5.5 -8t-6 -9t-6.5 -6.5t-8.5 -3t-10.5 4.5l-102 70l-102 -68q-15 -10 -23 2z" />
    <glyph glyph-name="udieresis" unicode="&#xfc;" horiz-adv-x="485" 
d="M66 171v210q0 7 6 13t13 6h32q7 0 13 -6t6 -13v-211q0 -56 23.5 -84.5t66.5 -28.5q34 0 63.5 14.5t42.5 28.5l13 14v267q0 7 5.5 13t13.5 6h31q7 0 13 -6t6 -13v-362q0 -7 -6 -13t-13 -6h-19q-13 0 -18 17l-7 26l-5.5 -5.5t-16 -13t-26.5 -16.5t-36.5 -12.5t-45.5 -5.5
q-155 0 -155 181zM339 585q-19 0 -33 13.5t-14 33.5t13.5 34t33.5 14t34 -14t14 -34t-14 -33.5t-34 -13.5zM146 585q-20 0 -33.5 13.5t-13.5 33.5t13.5 34t33.5 14t34 -14t14 -34t-14 -33.5t-34 -13.5z" />
    <glyph glyph-name="yacute" unicode="&#xfd;" horiz-adv-x="466" 
d="M200 1l-186 377q-5 10 -0.5 16t15.5 6h44q11 0 17 -11l148 -306h1l140 306q5 11 17 11h38q11 0 15.5 -6.5t-0.5 -16.5l-307 -665q-6 -12 -17 -12h-37q-11 0 -16 7t0 18zM148 561l-10 22q-6 13 6 19l150 84q4 4 13.5 3.5t12.5 -6.5l18 -36q8 -16 -6 -21l-161 -67
q-18 -8 -23 2z" />
    <glyph glyph-name="thorn" unicode="&#xfe;" 
d="M141 23v-304q0 -7 -5.5 -13t-13.5 -6h-31q-7 0 -13 6t-6 13v962q0 7 6 13t13 6h31q8 0 13.5 -6t5.5 -13v-309q4 4 12.5 10.5t37 17t60.5 10.5q84 0 136.5 -61t52.5 -150q0 -88 -55 -148.5t-137 -60.5q-29 0 -56 8t-39 16zM142 92q42 -35 97 -35q57 0 94 41t37 102
q0 63 -32.5 105t-93.5 42q-29 0 -54.5 -12.5t-36.5 -24.5l-11 -12v-206z" />
    <glyph glyph-name="ydieresis" unicode="&#xff;" horiz-adv-x="466" 
d="M200 1l-186 377q-5 10 -0.5 16t15.5 6h44q11 0 17 -11l148 -306h1l140 306q5 11 17 11h38q11 0 15.5 -6.5t-0.5 -16.5l-307 -665q-6 -12 -17 -12h-37q-11 0 -16 7t0 18zM334 585q-20 0 -33.5 13.5t-13.5 33.5t13.5 34t33.5 14t34 -14t14 -34t-14 -33.5t-34 -13.5z
M141 585q-19 0 -33 13.5t-14 33.5t13.5 34t33.5 14t34 -14t14 -34t-14 -33.5t-34 -13.5z" />
    <glyph glyph-name="Amacron" unicode="&#x100;" horiz-adv-x="663" 
d="M23 0q-11 0 -16.5 8t-0.5 18l304 673q6 11 17 11h10q11 0 17 -11l302 -673q5 -10 -0.5 -18t-16.5 -8h-40q-13 0 -17 11l-74 165h-355l-73 -165q-4 -11 -17 -11h-40zM181 238h300l-146 328h-8zM203 821q-8 0 -13.5 5t-5.5 13v21q0 19 19 19h256q19 0 19 -19v-21
q0 -8 -5.5 -13t-13.5 -5h-256z" />
    <glyph glyph-name="amacron" unicode="&#x101;" horiz-adv-x="419" 
d="M42 121q0 59 42.5 96t117.5 37q19 0 40.5 -3t33.5 -7l11 -3q1 60 -11.5 84t-53.5 24q-63 0 -120 -22q-14 -6 -19 10l-8 25q-5 15 11 22q6 3 21.5 8t49.5 11.5t68 6.5q74 0 100.5 -38.5t26.5 -130.5v-222q0 -7 -6 -13t-13 -6h-19q-12 0 -17 15l-8 27q-52 -52 -124 -52
q-53 0 -88 36t-35 95zM106 121q0 -31 19 -51t51 -20q35 0 65 17.5t45 38.5v79q-27 16 -84 16q-43 0 -69.5 -21t-26.5 -59zM77 583q-8 0 -13.5 5t-5.5 13v21q0 19 19 19h256q19 0 19 -19v-21q0 -8 -5.5 -13t-13.5 -5h-256z" />
    <glyph glyph-name="Abreve" unicode="&#x102;" horiz-adv-x="663" 
d="M23 0q-11 0 -16.5 8t-0.5 18l304 673q6 11 17 11h10q11 0 17 -11l302 -673q5 -10 -0.5 -18t-16.5 -8h-40q-13 0 -17 11l-74 165h-355l-73 -165q-4 -11 -17 -11h-40zM181 238h300l-146 328h-8zM331 771q-52 0 -90 32.5t-45 81.5q-4 20 14 20h21q13 0 19 -17
q8 -29 30 -46.5t51 -17.5q27 0 48.5 18.5t30.5 45.5q6 17 19 17h23q18 0 14 -20q-8 -49 -46 -81.5t-89 -32.5z" />
    <glyph glyph-name="abreve" unicode="&#x103;" horiz-adv-x="419" 
d="M42 121q0 59 42.5 96t117.5 37q19 0 40.5 -3t33.5 -7l11 -3q1 60 -11.5 84t-53.5 24q-63 0 -120 -22q-14 -6 -19 10l-8 25q-5 15 11 22q6 3 21.5 8t49.5 11.5t68 6.5q74 0 100.5 -38.5t26.5 -130.5v-222q0 -7 -6 -13t-13 -6h-19q-12 0 -17 15l-8 27q-52 -52 -124 -52
q-53 0 -88 36t-35 95zM106 121q0 -31 19 -51t51 -20q35 0 65 17.5t45 38.5v79q-27 16 -84 16q-43 0 -69.5 -21t-26.5 -59zM216 531q-52 0 -90 32.5t-45 81.5q-4 20 14 20h21q13 0 19 -17q8 -29 30 -46.5t51 -17.5q27 0 48.5 18.5t30.5 45.5q6 17 19 17h23q18 0 14 -20
q-8 -49 -46 -81.5t-89 -32.5z" />
    <glyph glyph-name="Aogonek" unicode="&#x104;" horiz-adv-x="663" 
d="M23 0q-11 0 -16.5 8t-0.5 18l304 673q6 11 17 11h10q11 0 17 -11l302 -673q5 -10 -0.5 -18t-16.5 -8h-13q-47 -44 -47 -99q0 -24 17 -40.5t40 -16.5q25 0 55 16q6 3 12 -1t6 -13v-25q0 -9 -14 -17q-30 -15 -70 -15q-45 0 -75.5 26t-30.5 76q0 67 64 117l-75 168h-355
l-73 -165q-4 -11 -17 -11h-40zM181 238h300l-146 328h-8z" />
    <glyph glyph-name="aogonek" unicode="&#x105;" horiz-adv-x="420" 
d="M42 121q0 59 42.5 96t117.5 37q19 0 40.5 -3t33.5 -7l11 -3q1 59 -12.5 85t-53.5 26q-46 0 -118 -24q-15 -5 -21 14l-7 20q-4 15 11 22q52 26 141 26q36 0 61 -10.5t37.5 -24t18.5 -40.5t7 -44.5t1 -52.5v-10v-209q0 -15 -15 -19q-48 -42 -48 -99q0 -24 17 -40.5
t40 -16.5q25 0 55 16q6 3 12 -1t6 -13v-25q0 -9 -14 -17q-30 -15 -70 -15q-45 0 -75.5 26t-30.5 76q0 34 17.5 64t34.5 43l17 13l-9 31q-52 -52 -124 -52q-53 0 -88 36t-35 95zM106 121q0 -31 19 -51t51 -20q35 0 65 17.5t45 38.5v79q-27 16 -84 16q-43 0 -69.5 -21
t-26.5 -59z" />
    <glyph glyph-name="Cacute" unicode="&#x106;" horiz-adv-x="707" 
d="M51 349q0 150 105.5 255.5t255.5 105.5q133 0 242 -93q14 -15 1 -28l-27 -27q-11 -14 -26 1q-87 75 -191 75q-117 0 -198 -85t-81 -203q0 -117 81 -202t198 -85q41 0 77.5 11.5t58.5 25t55 38.5q13 10 24 3l30 -27q6 -5 5.5 -13t-6.5 -14q-100 -97 -243 -97
q-150 0 -255.5 104.5t-105.5 254.5zM331 783l-10 22q-6 13 6 19l150 84q4 4 13.5 3.5t12.5 -6.5l18 -36q8 -16 -6 -21l-161 -67q-18 -8 -23 2z" />
    <glyph glyph-name="cacute" unicode="&#x107;" horiz-adv-x="441" 
d="M41 199q0 87 61.5 149t144.5 62q88 0 143 -70q12 -16 -4 -28l-19 -16q-4 -4 -7.5 -6t-7 -1t-4.5 1.5t-5 4.5l-5 5q-37 42 -92 42q-56 0 -94.5 -41t-38.5 -101t38 -102t94 -42q12 0 23 1.5t20.5 5.5t16 6.5t14.5 9l11 9t11 10.5l10 10q14 14 30 2l11 -8q17 -12 7 -28
q-24 -38 -64 -61t-89 -23q-84 0 -144.5 60t-60.5 149zM157 561l-10 22q-6 13 6 19l150 84q4 4 13.5 3.5t12.5 -6.5l18 -36q8 -16 -6 -21l-161 -67q-18 -8 -23 2z" />
    <glyph glyph-name="Ccircumflex" unicode="&#x108;" horiz-adv-x="707" 
d="M51 349q0 150 105.5 255.5t255.5 105.5q133 0 242 -93q14 -15 1 -28l-27 -27q-11 -14 -26 1q-87 75 -191 75q-117 0 -198 -85t-81 -203q0 -117 81 -202t198 -85q41 0 77.5 11.5t58.5 25t55 38.5q13 10 24 3l30 -27q6 -5 5.5 -13t-6.5 -14q-100 -97 -243 -97
q-150 0 -255.5 104.5t-105.5 254.5zM286 775l-14 18q-7 10 6 19l120 94q5 4 13 4t13 -4l120 -94q13 -9 6 -19q-2 -2 -5.5 -8t-6 -9t-6.5 -6.5t-8.5 -3t-10.5 4.5l-102 70l-102 -68q-15 -10 -23 2z" />
    <glyph glyph-name="ccircumflex" unicode="&#x109;" horiz-adv-x="441" 
d="M41 199q0 87 61.5 149t144.5 62q88 0 143 -70q12 -16 -4 -28l-19 -16q-4 -4 -7.5 -6t-7 -1t-4.5 1.5t-5 4.5l-5 5q-37 42 -92 42q-56 0 -94.5 -41t-38.5 -101t38 -102t94 -42q12 0 23 1.5t20.5 5.5t16 6.5t14.5 9l11 9t11 10.5l10 10q14 14 30 2l11 -8q17 -12 7 -28
q-24 -38 -64 -61t-89 -23q-84 0 -144.5 60t-60.5 149zM120 555l-14 18q-7 10 6 19l120 94q5 4 13 4t13 -4l120 -94q13 -9 6 -19q-2 -2 -5.5 -8t-6 -9t-6.5 -6.5t-8.5 -3t-10.5 4.5l-102 70l-102 -68q-15 -10 -23 2z" />
    <glyph glyph-name="Cdotaccent" unicode="&#x10a;" horiz-adv-x="707" 
d="M51 349q0 150 105.5 255.5t255.5 105.5q133 0 242 -93q14 -15 1 -28l-27 -27q-11 -14 -26 1q-87 75 -191 75q-117 0 -198 -85t-81 -203q0 -117 81 -202t198 -85q41 0 77.5 11.5t58.5 25t55 38.5q13 10 24 3l30 -27q6 -5 5.5 -13t-6.5 -14q-100 -97 -243 -97
q-150 0 -255.5 104.5t-105.5 254.5zM411 796q-23 0 -40 17t-17 40q0 24 17 40.5t40 16.5q24 0 40.5 -16.5t16.5 -40.5q0 -23 -16.5 -40t-40.5 -17z" />
    <glyph glyph-name="cdotaccent" unicode="&#x10b;" horiz-adv-x="441" 
d="M41 199q0 87 61.5 149t144.5 62q88 0 143 -70q12 -16 -4 -28l-19 -16q-4 -4 -7.5 -6t-7 -1t-4.5 1.5t-5 4.5l-5 5q-37 42 -92 42q-56 0 -94.5 -41t-38.5 -101t38 -102t94 -42q12 0 23 1.5t20.5 5.5t16 6.5t14.5 9l11 9t11 10.5l10 10q14 14 30 2l11 -8q17 -12 7 -28
q-24 -38 -64 -61t-89 -23q-84 0 -144.5 60t-60.5 149zM245 566q-23 0 -40 17t-17 40q0 24 17 40.5t40 16.5q24 0 40.5 -16.5t16.5 -40.5q0 -23 -16.5 -40t-40.5 -17z" />
    <glyph glyph-name="Ccaron" unicode="&#x10c;" horiz-adv-x="707" 
d="M51 349q0 150 105.5 255.5t255.5 105.5q133 0 242 -93q14 -15 1 -28l-27 -27q-11 -14 -26 1q-87 75 -191 75q-117 0 -198 -85t-81 -203q0 -117 81 -202t198 -85q41 0 77.5 11.5t58.5 25t55 38.5q13 10 24 3l30 -27q6 -5 5.5 -13t-6.5 -14q-100 -97 -243 -97
q-150 0 -255.5 104.5t-105.5 254.5zM411 768q-8 0 -13 4l-120 94q-13 9 -6 19l14 18q8 12 23 2l102 -68l102 70q15 10 23 -2l14 -20q2 -3 2 -6t-1 -5.5t-4 -5.5t-5.5 -4.5t-6 -4t-4.5 -3.5l-107 -84q-5 -4 -13 -4z" />
    <glyph glyph-name="ccaron" unicode="&#x10d;" horiz-adv-x="441" 
d="M41 199q0 87 61.5 149t144.5 62q88 0 143 -70q12 -16 -4 -28l-19 -16q-4 -4 -7.5 -6t-7 -1t-4.5 1.5t-5 4.5l-5 5q-37 42 -92 42q-56 0 -94.5 -41t-38.5 -101t38 -102t94 -42q12 0 23 1.5t20.5 5.5t16 6.5t14.5 9l11 9t11 10.5l10 10q14 14 30 2l11 -8q17 -12 7 -28
q-24 -38 -64 -61t-89 -23q-84 0 -144.5 60t-60.5 149zM232 546l-120 94q-13 9 -6 19l14 18q8 12 23 2l102 -68l102 70q15 10 23 -2l14 -20q2 -3 2 -6t-1 -5.5t-4 -5.5t-5.5 -4.5t-6 -4t-4.5 -3.5l-107 -84q-5 -4 -13 -4t-13 4z" />
    <glyph glyph-name="Dcaron" unicode="&#x10e;" horiz-adv-x="747" 
d="M102 19v662q0 8 5.5 13.5t12.5 5.5h224q145 0 248 -102.5t103 -246.5q0 -145 -103 -248t-248 -103h-224q-7 0 -12.5 5.5t-5.5 13.5zM178 69h150q123 0 203 79.5t80 202.5t-80 202t-203 79h-150v-563zM341 768q-8 0 -13 4l-120 94q-13 9 -6 19l14 18q8 12 23 2l102 -68
l102 70q15 10 23 -2l14 -20q2 -3 2 -6t-1 -5.5t-4 -5.5t-5.5 -4.5t-6 -4t-4.5 -3.5l-107 -84q-5 -4 -13 -4z" />
    <glyph glyph-name="dcaron" unicode="&#x10f;" horiz-adv-x="512" 
d="M42 201q0 90 52 149.5t140 59.5q29 0 56 -6.5t39 -13.5l12 -6v297q0 7 5.5 13t13.5 6h31q7 0 13 -6t6 -13v-662q0 -7 -6 -13t-13 -6h-21q-13 0 -17 16l-6 27l-5.5 -5.5t-16 -13t-26 -16.5t-34 -12.5t-41.5 -5.5q-76 0 -129 62t-53 149zM112 200q0 -61 33 -104t86 -43
q20 0 38.5 7t31 16.5t22 19t13.5 16.5l4 7v200q-42 24 -97 24q-63 0 -97 -40t-34 -103zM527 434l-14 14q-10 10 6 24q62 56 62 126q-4 -1 -12 -1q-23 0 -40 17t-17 40q0 24 17 40.5t40 16.5q66 0 66 -90q0 -56 -26.5 -106t-57.5 -79q-14 -12 -24 -2z" />
    <glyph glyph-name="Dcroat" unicode="&#x110;" horiz-adv-x="751" 
d="M106 19v305h-29q-7 0 -12.5 5.5t-5.5 13.5v7q0 8 5.5 13.5t12.5 5.5h29v312q0 8 5.5 13.5t12.5 5.5h224q145 0 248 -102.5t103 -246.5q0 -145 -103 -248t-248 -103h-224q-7 0 -12.5 5.5t-5.5 13.5zM182 69h150q123 0 203 79.5t80 202.5t-80 202t-203 79h-150v-263h211
q8 0 13.5 -5.5t5.5 -13.5v-8q0 -8 -5.5 -13t-13.5 -5h-211v-255z" />
    <glyph glyph-name="dcroat" unicode="&#x111;" 
d="M42 201q0 90 52 149.5t140 59.5q29 0 56 -6.5t39 -13.5l12 -6v152h-155q-8 0 -13.5 5t-5.5 13v8q0 8 5.5 13.5t13.5 5.5h155v100q0 7 5.5 13t13.5 6h31q7 0 13 -6t6 -13v-100h33q7 0 12.5 -5.5t5.5 -13.5v-7q0 -8 -5.5 -13.5t-12.5 -5.5h-33v-517q0 -7 -6 -13t-13 -6h-21
q-13 0 -17 16l-6 27l-5.5 -5.5t-16 -13t-26 -16.5t-34 -12.5t-41.5 -5.5q-76 0 -129 62t-53 149zM112 200q0 -61 33 -104t86 -43q20 0 38.5 7t31 16.5t22 19t13.5 16.5l4 7v200q-42 24 -97 24q-63 0 -97 -40t-34 -103z" />
    <glyph glyph-name="Emacron" unicode="&#x112;" horiz-adv-x="592" 
d="M102 19v662q0 8 5.5 13.5t13.5 5.5h394q8 0 13.5 -5.5t5.5 -13.5v-29q0 -8 -5.5 -13.5t-13.5 -5.5h-336v-244h287q8 0 13.5 -5.5t5.5 -13.5v-29q0 -8 -5.5 -13.5t-13.5 -5.5h-287v-255h336q8 0 13.5 -5.5t5.5 -13.5v-29q0 -8 -5.5 -13.5t-13.5 -5.5h-394q-8 0 -13.5 5.5
t-5.5 13.5zM190 821q-8 0 -13.5 5t-5.5 13v21q0 19 19 19h256q19 0 19 -19v-21q0 -8 -5.5 -13t-13.5 -5h-256z" />
    <glyph glyph-name="emacron" unicode="&#x113;" horiz-adv-x="457" 
d="M42 200q0 88 54 149t142 61q79 0 130 -52t51 -131q0 -13 -2 -27q-2 -17 -18 -17h-288q3 -51 42.5 -90.5t91.5 -39.5q50 0 99 30q13 7 16 8t12 -6l17 -23q6 -8 6 -13t-10 -13q-58 -46 -147 -46q-88 0 -142 60.5t-54 149.5zM112 239h238q-2 44 -34.5 77t-77.5 33
q-50 0 -85.5 -31.5t-40.5 -78.5zM108 583q-8 0 -13.5 5t-5.5 13v21q0 19 19 19h256q19 0 19 -19v-21q0 -8 -5.5 -13t-13.5 -5h-256z" />
    <glyph glyph-name="Ebreve" unicode="&#x114;" horiz-adv-x="592" 
d="M102 19v662q0 8 5.5 13.5t13.5 5.5h394q8 0 13.5 -5.5t5.5 -13.5v-29q0 -8 -5.5 -13.5t-13.5 -5.5h-336v-244h287q8 0 13.5 -5.5t5.5 -13.5v-29q0 -8 -5.5 -13.5t-13.5 -5.5h-287v-255h336q8 0 13.5 -5.5t5.5 -13.5v-29q0 -8 -5.5 -13.5t-13.5 -5.5h-394q-8 0 -13.5 5.5
t-5.5 13.5zM318 771q-52 0 -90 32.5t-45 81.5q-4 20 14 20h21q13 0 19 -17q8 -29 30 -46.5t51 -17.5q27 0 48.5 18.5t30.5 45.5q6 17 19 17h23q18 0 14 -20q-8 -49 -46 -81.5t-89 -32.5z" />
    <glyph glyph-name="ebreve" unicode="&#x115;" horiz-adv-x="457" 
d="M42 200q0 88 54 149t142 61q79 0 130 -52t51 -131q0 -13 -2 -27q-2 -17 -18 -17h-288q3 -51 42.5 -90.5t91.5 -39.5q50 0 99 30q13 7 16 8t12 -6l17 -23q6 -8 6 -13t-10 -13q-58 -46 -147 -46q-88 0 -142 60.5t-54 149.5zM112 239h238q-2 44 -34.5 77t-77.5 33
q-50 0 -85.5 -31.5t-40.5 -78.5zM237 531q-52 0 -90 32.5t-45 81.5q-4 20 14 20h21q13 0 19 -17q8 -29 30 -46.5t51 -17.5q27 0 48.5 18.5t30.5 45.5q6 17 19 17h23q18 0 14 -20q-8 -49 -46 -81.5t-89 -32.5z" />
    <glyph glyph-name="Edotaccent" unicode="&#x116;" horiz-adv-x="592" 
d="M102 19v662q0 8 5.5 13.5t13.5 5.5h394q8 0 13.5 -5.5t5.5 -13.5v-29q0 -8 -5.5 -13.5t-13.5 -5.5h-336v-244h287q8 0 13.5 -5.5t5.5 -13.5v-29q0 -8 -5.5 -13.5t-13.5 -5.5h-287v-255h336q8 0 13.5 -5.5t5.5 -13.5v-29q0 -8 -5.5 -13.5t-13.5 -5.5h-394q-8 0 -13.5 5.5
t-5.5 13.5zM320 796q-23 0 -40 17t-17 40q0 24 17 40.5t40 16.5q24 0 40.5 -16.5t16.5 -40.5q0 -23 -16.5 -40t-40.5 -17z" />
    <glyph glyph-name="edotaccent" unicode="&#x117;" horiz-adv-x="457" 
d="M42 200q0 88 54 149t142 61q79 0 130 -52t51 -131q0 -13 -2 -27q-2 -17 -18 -17h-288q3 -51 42.5 -90.5t91.5 -39.5q50 0 99 30q13 7 16 8t12 -6l17 -23q6 -8 6 -13t-10 -13q-58 -46 -147 -46q-88 0 -142 60.5t-54 149.5zM112 239h238q-2 44 -34.5 77t-77.5 33
q-50 0 -85.5 -31.5t-40.5 -78.5zM240 566q-23 0 -40 17t-17 40q0 24 17 40.5t40 16.5q24 0 40.5 -16.5t16.5 -40.5q0 -23 -16.5 -40t-40.5 -17z" />
    <glyph glyph-name="Eogonek" unicode="&#x118;" horiz-adv-x="592" 
d="M102 19v662q0 8 5.5 13.5t13.5 5.5h394q8 0 13.5 -5.5t5.5 -13.5v-29q0 -8 -5.5 -13.5t-13.5 -5.5h-336v-244h287q8 0 13.5 -5.5t5.5 -13.5v-29q0 -8 -5.5 -13.5t-13.5 -5.5h-287v-255h336q8 0 13.5 -5.5t5.5 -13.5v-25q0 -10 -15 -23q-48 -42 -48 -99q0 -24 17 -40.5
t40 -16.5q25 0 55 16q6 3 12 -1t6 -13v-25q0 -9 -14 -17q-30 -15 -70 -15q-45 0 -75.5 26t-30.5 76q0 63 54 109h-344q-8 0 -13.5 5.5t-5.5 13.5z" />
    <glyph glyph-name="eogonek" unicode="&#x119;" horiz-adv-x="459" 
d="M167 -109q0 56 45 101q-77 9 -123 67.5t-46 140.5q0 88 54 149t142 61q79 0 130 -52t51 -131q0 -13 -2 -27q-2 -17 -18 -17h-288q3 -51 42.5 -90.5t91.5 -39.5q50 0 99 30q13 7 16 8t12 -6l17 -23q6 -8 6 -13t-10 -13q-46 -37 -120 -45q-39 -41 -39 -90q0 -24 17 -40.5
t40 -16.5q25 0 55 16q6 3 12 -1t6 -13v-25q0 -9 -14 -17q-30 -15 -70 -15q-45 0 -75.5 26t-30.5 76zM113 239h238q-2 44 -34.5 77t-77.5 33q-50 0 -85.5 -31.5t-40.5 -78.5z" />
    <glyph glyph-name="Ecaron" unicode="&#x11a;" horiz-adv-x="592" 
d="M102 19v662q0 8 5.5 13.5t13.5 5.5h394q8 0 13.5 -5.5t5.5 -13.5v-29q0 -8 -5.5 -13.5t-13.5 -5.5h-336v-244h287q8 0 13.5 -5.5t5.5 -13.5v-29q0 -8 -5.5 -13.5t-13.5 -5.5h-287v-255h336q8 0 13.5 -5.5t5.5 -13.5v-29q0 -8 -5.5 -13.5t-13.5 -5.5h-394q-8 0 -13.5 5.5
t-5.5 13.5zM317 768q-8 0 -13 4l-120 94q-13 9 -6 19l14 18q8 12 23 2l102 -68l102 70q15 10 23 -2l14 -20q2 -3 2 -6t-1 -5.5t-4 -5.5t-5.5 -4.5t-6 -4t-4.5 -3.5l-107 -84q-5 -4 -13 -4z" />
    <glyph glyph-name="ecaron" unicode="&#x11b;" horiz-adv-x="457" 
d="M42 200q0 88 54 149t142 61q79 0 130 -52t51 -131q0 -13 -2 -27q-2 -17 -18 -17h-288q3 -51 42.5 -90.5t91.5 -39.5q50 0 99 30q13 7 16 8t12 -6l17 -23q6 -8 6 -13t-10 -13q-58 -46 -147 -46q-88 0 -142 60.5t-54 149.5zM112 239h238q-2 44 -34.5 77t-77.5 33
q-50 0 -85.5 -31.5t-40.5 -78.5zM223 546l-120 94q-13 9 -6 19l14 18q8 12 23 2l102 -68l102 70q15 10 23 -2l14 -20q2 -3 2 -6t-1 -5.5t-4 -5.5t-5.5 -4.5t-6 -4t-4.5 -3.5l-107 -84q-5 -4 -13 -4t-13 4z" />
    <glyph glyph-name="Gcircumflex" unicode="&#x11c;" horiz-adv-x="732" 
d="M51 349q0 150 105.5 255.5t255.5 105.5q133 0 242 -93q14 -15 1 -28l-28 -28q-11 -12 -26 1q-40 35 -90.5 56.5t-99.5 21.5q-117 0 -197.5 -84.5t-80.5 -202.5q0 -117 80.5 -203t197.5 -86q49 0 94 10.5t65 21.5l21 10v140h-115q-8 0 -13.5 5t-5.5 13v37q0 19 19 19h173
q7 0 12.5 -5.5t5.5 -13.5v-229q0 -10 -8 -16q-11 -7 -32 -18t-86 -29.5t-129 -18.5q-150 0 -255.5 104.5t-105.5 254.5zM286 775l-14 18q-7 10 6 19l120 94q5 4 13 4t13 -4l120 -94q13 -9 6 -19q-2 -2 -5.5 -8t-6 -9t-6.5 -6.5t-8.5 -3t-10.5 4.5l-102 70l-102 -68
q-15 -10 -23 2z" />
    <glyph glyph-name="gcircumflex" unicode="&#x11d;" horiz-adv-x="459" 
d="M31 19q0 34 16.5 62.5t33.5 40.5l17 12q-32 41 -32 100q0 73 46.5 124.5t122.5 51.5h169q19 0 19 -19v-17q0 -15 -11 -17l-54 -11q5 -4 12.5 -11.5t20 -36.5t12.5 -64q0 -71 -46.5 -120.5t-121.5 -49.5q-28 0 -52 6t-33 12l-10 7q-5 -2 -12.5 -6.5t-19.5 -20t-12 -33.5
q0 -20 14.5 -34.5t40.5 -14.5h144q66 0 108 -32.5t42 -95.5q0 -64 -59.5 -113t-147.5 -49q-94 0 -143 41.5t-49 96.5q0 58 58 93v3q-27 7 -50 30.5t-23 64.5zM236 124q45 0 72.5 31t27.5 81t-27.5 81t-72.5 31q-46 0 -75.5 -31.5t-29.5 -80.5t29.5 -80.5t75.5 -31.5z
M117 -162q0 -36 34.5 -59.5t85.5 -23.5q52 0 93 26.5t41 68.5q0 11 -3.5 23.5t-22 27t-50.5 14.5h-111q-8 -2 -19 -6.5t-29.5 -24.5t-18.5 -46zM124 555l-14 18q-7 10 6 19l120 94q5 4 13 4t13 -4l120 -94q13 -9 6 -19q-2 -2 -5.5 -8t-6 -9t-6.5 -6.5t-8.5 -3t-10.5 4.5
l-102 70l-102 -68q-15 -10 -23 2z" />
    <glyph glyph-name="Gbreve" unicode="&#x11e;" horiz-adv-x="732" 
d="M51 349q0 150 105.5 255.5t255.5 105.5q133 0 242 -93q14 -15 1 -28l-28 -28q-11 -12 -26 1q-40 35 -90.5 56.5t-99.5 21.5q-117 0 -197.5 -84.5t-80.5 -202.5q0 -117 80.5 -203t197.5 -86q49 0 94 10.5t65 21.5l21 10v140h-115q-8 0 -13.5 5t-5.5 13v37q0 19 19 19h173
q7 0 12.5 -5.5t5.5 -13.5v-229q0 -10 -8 -16q-11 -7 -32 -18t-86 -29.5t-129 -18.5q-150 0 -255.5 104.5t-105.5 254.5zM412 771q-52 0 -90 32.5t-45 81.5q-4 20 14 20h21q13 0 19 -17q8 -29 30 -46.5t51 -17.5q27 0 48.5 18.5t30.5 45.5q6 17 19 17h23q18 0 14 -20
q-8 -49 -46 -81.5t-89 -32.5z" />
    <glyph glyph-name="gbreve" unicode="&#x11f;" horiz-adv-x="459" 
d="M31 19q0 34 16.5 62.5t33.5 40.5l17 12q-32 41 -32 100q0 73 46.5 124.5t122.5 51.5h169q19 0 19 -19v-17q0 -15 -11 -17l-54 -11q5 -4 12.5 -11.5t20 -36.5t12.5 -64q0 -71 -46.5 -120.5t-121.5 -49.5q-28 0 -52 6t-33 12l-10 7q-5 -2 -12.5 -6.5t-19.5 -20t-12 -33.5
q0 -20 14.5 -34.5t40.5 -14.5h144q66 0 108 -32.5t42 -95.5q0 -64 -59.5 -113t-147.5 -49q-94 0 -143 41.5t-49 96.5q0 58 58 93v3q-27 7 -50 30.5t-23 64.5zM236 124q45 0 72.5 31t27.5 81t-27.5 81t-72.5 31q-46 0 -75.5 -31.5t-29.5 -80.5t29.5 -80.5t75.5 -31.5z
M117 -162q0 -36 34.5 -59.5t85.5 -23.5q52 0 93 26.5t41 68.5q0 11 -3.5 23.5t-22 27t-50.5 14.5h-111q-8 -2 -19 -6.5t-29.5 -24.5t-18.5 -46zM250 531q-52 0 -90 32.5t-45 81.5q-4 20 14 20h21q13 0 19 -17q8 -29 30 -46.5t51 -17.5q27 0 48.5 18.5t30.5 45.5q6 17 19 17
h23q18 0 14 -20q-8 -49 -46 -81.5t-89 -32.5z" />
    <glyph glyph-name="Gdotaccent" unicode="&#x120;" horiz-adv-x="732" 
d="M51 349q0 150 105.5 255.5t255.5 105.5q133 0 242 -93q14 -15 1 -28l-28 -28q-11 -12 -26 1q-40 35 -90.5 56.5t-99.5 21.5q-117 0 -197.5 -84.5t-80.5 -202.5q0 -117 80.5 -203t197.5 -86q49 0 94 10.5t65 21.5l21 10v140h-115q-8 0 -13.5 5t-5.5 13v37q0 19 19 19h173
q7 0 12.5 -5.5t5.5 -13.5v-229q0 -10 -8 -16q-11 -7 -32 -18t-86 -29.5t-129 -18.5q-150 0 -255.5 104.5t-105.5 254.5zM411 796q-23 0 -40 17t-17 40q0 24 17 40.5t40 16.5q24 0 40.5 -16.5t16.5 -40.5q0 -23 -16.5 -40t-40.5 -17z" />
    <glyph glyph-name="gdotaccent" unicode="&#x121;" horiz-adv-x="459" 
d="M31 19q0 34 16.5 62.5t33.5 40.5l17 12q-32 41 -32 100q0 73 46.5 124.5t122.5 51.5h169q19 0 19 -19v-17q0 -15 -11 -17l-54 -11q5 -4 12.5 -11.5t20 -36.5t12.5 -64q0 -71 -46.5 -120.5t-121.5 -49.5q-28 0 -52 6t-33 12l-10 7q-5 -2 -12.5 -6.5t-19.5 -20t-12 -33.5
q0 -20 14.5 -34.5t40.5 -14.5h144q66 0 108 -32.5t42 -95.5q0 -64 -59.5 -113t-147.5 -49q-94 0 -143 41.5t-49 96.5q0 58 58 93v3q-27 7 -50 30.5t-23 64.5zM236 124q45 0 72.5 31t27.5 81t-27.5 81t-72.5 31q-46 0 -75.5 -31.5t-29.5 -80.5t29.5 -80.5t75.5 -31.5z
M117 -162q0 -36 34.5 -59.5t85.5 -23.5q52 0 93 26.5t41 68.5q0 11 -3.5 23.5t-22 27t-50.5 14.5h-111q-8 -2 -19 -6.5t-29.5 -24.5t-18.5 -46zM248 566q-23 0 -40 17t-17 40q0 24 17 40.5t40 16.5q24 0 40.5 -16.5t16.5 -40.5q0 -23 -16.5 -40t-40.5 -17z" />
    <glyph glyph-name="Gcommaaccent" unicode="&#x122;" horiz-adv-x="732" 
d="M51 349q0 150 105.5 255.5t255.5 105.5q133 0 242 -93q14 -15 1 -28l-28 -28q-11 -12 -26 1q-40 35 -90.5 56.5t-99.5 21.5q-117 0 -197.5 -84.5t-80.5 -202.5q0 -117 80.5 -203t197.5 -86q49 0 94 10.5t65 21.5l21 10v140h-115q-8 0 -13.5 5t-5.5 13v37q0 19 19 19h173
q7 0 12.5 -5.5t5.5 -13.5v-229q0 -10 -8 -16q-11 -7 -32 -18t-86 -29.5t-129 -18.5q-150 0 -255.5 104.5t-105.5 254.5zM409 -92q66 0 66 -90q0 -56 -26.5 -106t-57.5 -79q-14 -12 -24 -2l-14 14q-10 10 6 24q62 56 62 126q-4 -1 -12 -1q-23 0 -40 17t-17 40q0 24 17 40.5
t40 16.5z" />
    <glyph glyph-name="gcommaaccent" unicode="&#x123;" horiz-adv-x="459" 
d="M258 530q-66 0 -66 90q0 56 26.5 106t57.5 79q14 12 24 2l14 -14q10 -10 -6 -24q-62 -56 -62 -126q4 1 12 1q23 0 40 -17t17 -40q0 -24 -17 -40.5t-40 -16.5zM31 19q0 34 16.5 62.5t33.5 40.5l17 12q-32 41 -32 100q0 73 46.5 124.5t122.5 51.5h169q19 0 19 -19v-17
q0 -15 -11 -17l-54 -11q5 -4 12.5 -11.5t20 -36.5t12.5 -64q0 -71 -46.5 -120.5t-121.5 -49.5q-28 0 -52 6t-33 12l-10 7q-5 -2 -12.5 -6.5t-19.5 -20t-12 -33.5q0 -20 14.5 -34.5t40.5 -14.5h144q66 0 108 -32.5t42 -95.5q0 -64 -59.5 -113t-147.5 -49q-94 0 -143 41.5
t-49 96.5q0 58 58 93v3q-27 7 -50 30.5t-23 64.5zM236 124q45 0 72.5 31t27.5 81t-27.5 81t-72.5 31q-46 0 -75.5 -31.5t-29.5 -80.5t29.5 -80.5t75.5 -31.5zM117 -162q0 -36 34.5 -59.5t85.5 -23.5q52 0 93 26.5t41 68.5q0 11 -3.5 23.5t-22 27t-50.5 14.5h-111
q-8 -2 -19 -6.5t-29.5 -24.5t-18.5 -46z" />
    <glyph glyph-name="Hcircumflex" unicode="&#x124;" horiz-adv-x="764" 
d="M102 19v662q0 7 6 13t13 6h39q8 0 13.5 -5.5t5.5 -13.5v-292h406v292q0 8 5.5 13.5t13.5 5.5h39q7 0 13 -6t6 -13v-662q0 -7 -6 -13t-13 -6h-39q-8 0 -13.5 5.5t-5.5 13.5v303h-406v-303q0 -8 -5.5 -13.5t-13.5 -5.5h-39q-7 0 -13 6t-6 13zM259 775l-14 18q-7 10 6 19
l120 94q5 4 13 4t13 -4l120 -94q13 -9 6 -19q-2 -2 -5.5 -8t-6 -9t-6.5 -6.5t-8.5 -3t-10.5 4.5l-102 70l-102 -68q-15 -10 -23 2z" />
    <glyph glyph-name="hcircumflex" unicode="&#x125;" horiz-adv-x="496" 
d="M72 19v662q0 7 6 13t13 6h31q8 0 13.5 -6t5.5 -13v-324q6 6 17 15t46 23.5t71 14.5q75 0 115 -46.5t40 -133.5v-211q0 -7 -6 -13t-13 -6h-32q-7 0 -13 6t-6 13v211q0 56 -23.5 84.5t-66.5 28.5q-34 0 -66 -14t-48 -28l-15 -14v-268q0 -7 -5.5 -13t-13.5 -6h-31
q-7 0 -13 6t-6 13zM-19 772l-14 18q-7 10 6 19l120 94q5 4 13 4t13 -4l120 -94q13 -9 6 -19q-2 -2 -5.5 -8t-6 -9t-6.5 -6.5t-8.5 -3t-10.5 4.5l-102 70l-102 -68q-15 -10 -23 2z" />
    <glyph glyph-name="Hbar" unicode="&#x126;" horiz-adv-x="764" 
d="M102 19v517h-22q-7 0 -12.5 5.5t-5.5 13.5v7q0 8 5.5 13.5t12.5 5.5h22v100q0 7 6 13t13 6h39q8 0 13.5 -5.5t5.5 -13.5v-100h406v100q0 8 5.5 13.5t13.5 5.5h39q7 0 13 -6t6 -13v-100h21q8 0 13.5 -5.5t5.5 -13.5v-8q0 -8 -5.5 -13t-13.5 -5h-21v-517q0 -7 -6 -13
t-13 -6h-39q-8 0 -13.5 5.5t-5.5 13.5v303h-406v-303q0 -8 -5.5 -13.5t-13.5 -5.5h-39q-7 0 -13 6t-6 13zM179 389h406v147h-406v-147z" />
    <glyph glyph-name="hbar" unicode="&#x127;" horiz-adv-x="496" 
d="M72 19v517h-33q-7 0 -12.5 5.5t-5.5 13.5v7q0 8 5.5 13.5t12.5 5.5h33v100q0 7 6 13t13 6h31q8 0 13.5 -6t5.5 -13v-100h155q8 0 13.5 -5.5t5.5 -13.5v-8q0 -8 -5.5 -13t-13.5 -5h-155v-179q6 6 17 15t46 23.5t71 14.5q155 0 155 -183v-208q0 -7 -6 -13t-13 -6h-32
q-7 0 -13 6t-6 13v211q0 56 -23.5 84.5t-66.5 28.5q-34 0 -66 -14t-48 -28l-15 -14v-268q0 -7 -5.5 -13t-13.5 -6h-31q-7 0 -13 6t-6 13z" />
    <glyph glyph-name="Itilde" unicode="&#x128;" horiz-adv-x="282" 
d="M102 19v662q0 7 6 13t13 6h40q7 0 13 -6t6 -13v-662q0 -7 -6 -13t-13 -6h-40q-7 0 -13 6t-6 13zM16 795l-18 9q-11 6 -4 22q0 1 6 15t11.5 23t15.5 21t25 18.5t34 6.5q26 0 46.5 -18.5t36 -37t27.5 -18.5q30 0 45 51q5 16 23 8l16 -8q10 -5 4 -26q-28 -81 -89 -81
q-24 0 -45.5 19t-37.5 37.5t-27 18.5q-12 0 -22 -9t-13.5 -17.5t-8.5 -23.5q-6 -20 -25 -10z" />
    <glyph glyph-name="itilde" unicode="&#x129;" horiz-adv-x="211" 
d="M71 19v362q0 7 5.5 13t13.5 6h31q7 0 13 -6t6 -13v-362q0 -7 -6 -13t-13 -6h-31q-8 0 -13.5 6t-5.5 13zM-18 575l-18 9q-11 6 -4 22q0 1 6 15t11.5 23t15.5 21t25 18.5t34 6.5q26 0 46.5 -18.5t36 -37t27.5 -18.5q30 0 45 51q5 16 23 8l16 -8q10 -5 4 -26
q-28 -81 -89 -81q-24 0 -45.5 19t-37.5 37.5t-27 18.5q-12 0 -22 -9t-13.5 -17.5t-8.5 -23.5q-6 -20 -25 -10z" />
    <glyph glyph-name="Imacron" unicode="&#x12a;" horiz-adv-x="282" 
d="M102 19v662q0 7 6 13t13 6h40q7 0 13 -6t6 -13v-662q0 -7 -6 -13t-13 -6h-40q-7 0 -13 6t-6 13zM14 821q-8 0 -13.5 5t-5.5 13v21q0 19 19 19h256q19 0 19 -19v-21q0 -8 -5.5 -13t-13.5 -5h-256z" />
    <glyph glyph-name="imacron" unicode="&#x12b;" horiz-adv-x="211" 
d="M71 19v362q0 7 5.5 13t13.5 6h31q7 0 13 -6t6 -13v-362q0 -7 -6 -13t-13 -6h-31q-8 0 -13.5 6t-5.5 13zM-20 583q-8 0 -13.5 5t-5.5 13v21q0 19 19 19h256q19 0 19 -19v-21q0 -8 -5.5 -13t-13.5 -5h-256z" />
    <glyph glyph-name="Ibreve" unicode="&#x12c;" horiz-adv-x="282" 
d="M102 19v662q0 7 6 13t13 6h40q7 0 13 -6t6 -13v-662q0 -7 -6 -13t-13 -6h-40q-7 0 -13 6t-6 13zM142 771q-52 0 -90 32.5t-45 81.5q-4 20 14 20h21q13 0 19 -17q8 -29 30 -46.5t51 -17.5q27 0 48.5 18.5t30.5 45.5q6 17 19 17h23q18 0 14 -20q-8 -49 -46 -81.5t-89 -32.5
z" />
    <glyph glyph-name="ibreve" unicode="&#x12d;" horiz-adv-x="211" 
d="M71 19v362q0 7 5.5 13t13.5 6h31q7 0 13 -6t6 -13v-362q0 -7 -6 -13t-13 -6h-31q-8 0 -13.5 6t-5.5 13zM108 531q-52 0 -90 32.5t-45 81.5q-4 20 14 20h21q13 0 19 -17q8 -29 30 -46.5t51 -17.5q27 0 48.5 18.5t30.5 45.5q6 17 19 17h23q18 0 14 -20q-8 -49 -46 -81.5
t-89 -32.5z" />
    <glyph glyph-name="Iogonek" unicode="&#x12e;" horiz-adv-x="282" 
d="M102 19v662q0 7 6 13t13 6h40q7 0 13 -6t6 -13v-662q0 -7 -6 -13t-13 -6h-3q-47 -44 -47 -99q0 -24 17 -40.5t40 -16.5q25 0 55 16q6 3 12 -1t6 -13v-25q0 -9 -14 -17q-30 -15 -70 -15q-45 0 -75.5 26t-30.5 76q0 39 19 67.5t40 44.5q-8 6 -8 16z" />
    <glyph glyph-name="iogonek" unicode="&#x12f;" horiz-adv-x="212" 
d="M105 585q-19 0 -33 13.5t-14 33.5t13.5 34t33.5 14t34 -14t14 -34t-14 -33.5t-34 -13.5zM72 19v362q0 7 6 13t13 6h31q8 0 13.5 -6t5.5 -13v-362q0 -7 -5.5 -13t-13.5 -6q-47 -44 -47 -99q0 -24 17 -40.5t40 -16.5q25 0 55 16q6 3 12 -1t6 -13v-25q0 -9 -14 -17
q-30 -15 -70 -15q-45 0 -75.5 26t-30.5 76q0 69 62 115q-5 5 -5 13z" />
    <glyph glyph-name="Idotaccent" unicode="&#x130;" horiz-adv-x="282" 
d="M102 19v662q0 7 6 13t13 6h40q7 0 13 -6t6 -13v-662q0 -7 -6 -13t-13 -6h-40q-7 0 -13 6t-6 13zM141 796q-23 0 -40 17t-17 40q0 24 17 40.5t40 16.5q24 0 40.5 -16.5t16.5 -40.5q0 -23 -16.5 -40t-40.5 -17z" />
    <glyph glyph-name="dotlessi" unicode="&#x131;" horiz-adv-x="211" 
d="M71 19v362q0 7 5.5 13t13.5 6h31q7 0 13 -6t6 -13v-362q0 -7 -6 -13t-13 -6h-31q-8 0 -13.5 6t-5.5 13z" />
    <glyph glyph-name="IJ" unicode="&#x132;" horiz-adv-x="699" 
d="M102 19v662q0 7 6 13t13 6h40q7 0 13 -6t6 -13v-662q0 -7 -6 -13t-13 -6h-40q-7 0 -13 6t-6 13zM274 64q-8 13 2 25l21 24q17 16 34 -3q47 -53 97 -53t86 38t36 112v474q0 8 5.5 13.5t13.5 5.5h39q8 0 13.5 -5.5t5.5 -13.5v-472q0 -102 -55.5 -160.5t-145.5 -58.5
q-92 0 -152 74z" />
    <glyph glyph-name="ij" unicode="&#x133;" horiz-adv-x="449" 
d="M104 585q-20 0 -33.5 13.5t-13.5 33.5t13.5 34t33.5 14t34 -14t14 -34t-14 -33.5t-34 -13.5zM71 19v362q0 7 5.5 13t13.5 6h31q7 0 13 -6t6 -13v-362q0 -7 -6 -13t-13 -6h-31q-8 0 -13.5 6t-5.5 13zM342 585q-20 0 -33.5 13.5t-13.5 33.5t13.5 34t33.5 14t34 -14t14 -34
t-14 -33.5t-34 -13.5zM308 -140v521q0 8 5.5 13.5t13.5 5.5h31q8 0 13.5 -5.5t5.5 -13.5v-521q0 -83 -42.5 -126.5t-110.5 -43.5q-67 0 -110 41q-12 10 -4 23l16 26q9 15 26 1q38 -29 73 -29q37 0 60 26.5t23 81.5z" />
    <glyph glyph-name="Jcircumflex" unicode="&#x134;" horiz-adv-x="405" 
d="M-20 64q-8 13 2 25l21 24q17 16 34 -3q47 -53 97 -53t86 38t36 112v474q0 8 5.5 13.5t13.5 5.5h39q8 0 13.5 -5.5t5.5 -13.5v-472q0 -102 -55.5 -160.5t-145.5 -58.5q-92 0 -152 74zM169 775l-14 18q-7 10 6 19l120 94q5 4 13 4t13 -4l120 -94q13 -9 6 -19q-2 -2 -5.5 -8
t-6 -9t-6.5 -6.5t-8.5 -3t-10.5 4.5l-102 70l-102 -68q-15 -10 -23 2z" />
    <glyph glyph-name="jcircumflex" unicode="&#x135;" horiz-adv-x="213" 
d="M72 -140v521q0 8 5.5 13.5t13.5 5.5h31q8 0 13.5 -5.5t5.5 -13.5v-521q0 -83 -42.5 -126.5t-110.5 -43.5q-67 0 -110 41q-12 10 -4 23l16 26q9 15 26 1q38 -29 73 -29q37 0 60 26.5t23 81.5zM-19 555l-14 18q-7 10 6 19l120 94q5 4 13 4t13 -4l120 -94q13 -9 6 -19
q-2 -2 -5.5 -8t-6 -9t-6.5 -6.5t-8.5 -3t-10.5 4.5l-102 70l-102 -68q-15 -10 -23 2z" />
    <glyph glyph-name="Kcommaaccent" unicode="&#x136;" horiz-adv-x="618" 
d="M102 24v652q0 10 7 17t17 7h29q10 0 17 -7t7 -17v-283l312 297q8 10 19 10h49q14 0 18.5 -12t-6.5 -23l-316 -295l331 -339q7 -5 2.5 -18t-19.5 -13h-51q-13 0 -18 7l-321 335v-318q0 -10 -7 -17t-17 -7h-29q-10 0 -17 7t-7 17zM312 -92q66 0 66 -90q0 -56 -26.5 -106
t-57.5 -79q-14 -12 -24 -2l-14 14q-10 10 6 24q62 56 62 126q-4 -1 -12 -1q-23 0 -40 17t-17 40q0 24 17 40.5t40 16.5z" />
    <glyph glyph-name="kcommaaccent" unicode="&#x137;" horiz-adv-x="447" 
d="M71 19v662q0 7 5.5 13t13.5 6h31q7 0 13 -6t6 -13v-433l170 140q14 12 24 12h54q12 0 13.5 -10t-4.5 -15l-190 -152l221 -198q7 -5 4.5 -15t-14.5 -10h-55q-9 0 -20 8l-203 193v-182q0 -7 -6 -13t-13 -6h-31q-8 0 -13.5 6t-5.5 13zM226 -92q66 0 66 -90q0 -56 -26.5 -106
t-57.5 -79q-14 -12 -24 -2l-14 14q-10 10 6 24q62 56 62 126q-4 -1 -12 -1q-23 0 -40 17t-17 40q0 24 17 40.5t40 16.5z" />
    <glyph glyph-name="kgreenlandic" unicode="&#x138;" horiz-adv-x="449" 
d="M71 19v362q0 7 5.5 13t13.5 6h31q7 0 13 -6t6 -13v-163l178 170q14 12 24 12h52q12 0 13.5 -10t-4.5 -15l-196 -177l221 -173q7 -5 4.5 -15t-14.5 -10h-55q-9 0 -20 8l-203 163v-152q0 -7 -6 -13t-13 -6h-31q-8 0 -13.5 6t-5.5 13z" />
    <glyph glyph-name="Lacute" unicode="&#x139;" horiz-adv-x="491" 
d="M102 19v662q0 8 5.5 13.5t13.5 5.5h39q8 0 13.5 -6t5.5 -13v-614h288q8 0 13.5 -5.5t5.5 -13.5v-29q0 -8 -5.5 -13.5t-13.5 -5.5h-346q-8 0 -13.5 5.5t-5.5 13.5zM51 783l-10 22q-6 13 6 19l150 84q4 4 13.5 3.5t12.5 -6.5l18 -36q8 -16 -6 -21l-161 -67q-18 -8 -23 2z
" />
    <glyph glyph-name="lacute" unicode="&#x13a;" horiz-adv-x="213" 
d="M72 19v662q0 7 6 13t13 6h31q8 0 13.5 -6t5.5 -13v-662q0 -7 -5.5 -13t-13.5 -6h-31q-7 0 -13 6t-6 13zM18 778l-10 22q-6 13 6 19l150 84q4 4 13.5 3.5t12.5 -6.5l18 -36q8 -16 -6 -21l-161 -67q-18 -8 -23 2z" />
    <glyph glyph-name="Lcommaaccent" unicode="&#x13b;" horiz-adv-x="492" 
d="M102 19v662q0 8 5.5 13.5t13.5 5.5h39q8 0 13.5 -6t5.5 -13v-614h288q8 0 13.5 -5.5t5.5 -13.5v-29q0 -8 -5.5 -13.5t-13.5 -5.5h-346q-8 0 -13.5 5.5t-5.5 13.5zM294 -92q66 0 66 -90q0 -56 -26.5 -106t-57.5 -79q-14 -12 -24 -2l-14 14q-10 10 6 24q62 56 62 126
q-4 -1 -12 -1q-23 0 -40 17t-17 40q0 24 17 40.5t40 16.5z" />
    <glyph glyph-name="lcommaaccent" unicode="&#x13c;" horiz-adv-x="212" 
d="M70 19v662q0 7 6 13t13 6h31q8 0 13.5 -6t5.5 -13v-662q0 -7 -5.5 -13t-13.5 -6h-31q-7 0 -13 6t-6 13zM103 -92q66 0 66 -90q0 -56 -26.5 -106t-57.5 -79q-14 -12 -24 -2l-14 14q-10 10 6 24q62 56 62 126q-4 -1 -12 -1q-23 0 -40 17t-17 40q0 24 17 40.5t40 16.5z" />
    <glyph glyph-name="Lcaron" unicode="&#x13d;" horiz-adv-x="491" 
d="M102 19v662q0 8 5.5 13.5t13.5 5.5h39q8 0 13.5 -6t5.5 -13v-614h288q8 0 13.5 -5.5t5.5 -13.5v-29q0 -8 -5.5 -13.5t-13.5 -5.5h-346q-8 0 -13.5 5.5t-5.5 13.5zM394 710q66 0 66 -90q0 -56 -26.5 -106t-57.5 -79q-14 -12 -24 -2l-14 14q-10 10 6 24q62 56 62 126
q-4 -1 -12 -1q-23 0 -40 17t-17 40q0 24 17 40.5t40 16.5z" />
    <glyph glyph-name="lcaron" unicode="&#x13e;" horiz-adv-x="243" 
d="M72 19v662q0 7 6 13t13 6h31q8 0 13.5 -6t5.5 -13v-662q0 -7 -5.5 -13t-13.5 -6h-31q-7 0 -13 6t-6 13zM258 434l-14 14q-10 10 6 24q62 56 62 126q-4 -1 -12 -1q-23 0 -40 17t-17 40q0 24 17 40.5t40 16.5q66 0 66 -90q0 -56 -26.5 -106t-57.5 -79q-14 -12 -24 -2z" />
    <glyph glyph-name="Ldot" unicode="&#x13f;" horiz-adv-x="574" 
d="M102 19v662q0 8 5.5 13.5t13.5 5.5h39q8 0 13.5 -6t5.5 -13v-614h288q8 0 13.5 -5.5t5.5 -13.5v-29q0 -8 -5.5 -13.5t-13.5 -5.5h-346q-8 0 -13.5 5.5t-5.5 13.5zM484 292q-23 0 -40 17t-17 40q0 24 17 40.5t40 16.5q24 0 40.5 -16.5t16.5 -40.5q0 -23 -16.5 -40
t-40.5 -17z" />
    <glyph glyph-name="ldot" unicode="&#x140;" horiz-adv-x="326" 
d="M72 19v662q0 7 6 13t13 6h31q8 0 13.5 -6t5.5 -13v-662q0 -7 -5.5 -13t-13.5 -6h-31q-7 0 -13 6t-6 13zM268 303q-23 0 -40 17t-17 40q0 24 17 40.5t40 16.5q24 0 40.5 -16.5t16.5 -40.5q0 -23 -16.5 -40t-40.5 -17z" />
    <glyph glyph-name="Lslash" unicode="&#x141;" horiz-adv-x="497" 
d="M108 19v292l-21 -12q-16 -10 -25 7l-4 8q-8 16 7 24l43 24v319q0 8 5.5 13.5t13.5 5.5h39q8 0 13.5 -6t5.5 -13v-274l111 64q17 10 26 -7l3 -6q9 -16 -7 -26l-133 -76v-289h288q8 0 13.5 -5.5t5.5 -13.5v-29q0 -8 -5.5 -13.5t-13.5 -5.5h-346q-8 0 -13.5 5.5t-5.5 13.5z
" />
    <glyph glyph-name="lslash" unicode="&#x142;" horiz-adv-x="238" 
d="M88 19v303l-51 -29q-6 -4 -13.5 -2t-11.5 9l-3 6q-10 16 6 26l73 41v308q0 7 6 13t13 6h31q8 0 13.5 -6t5.5 -13v-268l89 52q16 9 26 -7l3 -6q9 -16 -7 -26l-111 -64v-343q0 -7 -5.5 -13t-13.5 -6h-31q-7 0 -13 6t-6 13z" />
    <glyph glyph-name="Nacute" unicode="&#x143;" horiz-adv-x="774" 
d="M102 19v673q0 7 5.5 12.5t13.5 5.5h25l451 -562h2v533q0 8 5.5 13.5t13.5 5.5h35q7 0 13 -6t6 -13v-673q0 -7 -5.5 -12.5t-13.5 -5.5h-18l-459 573h-1v-544q0 -8 -5.5 -13.5t-13.5 -5.5h-35q-7 0 -13 6t-6 13zM309 783l-10 22q-6 13 6 19l150 84q4 4 13.5 3.5t12.5 -6.5
l18 -36q8 -16 -6 -21l-161 -67q-18 -8 -23 2z" />
    <glyph glyph-name="nacute" unicode="&#x144;" horiz-adv-x="495" 
d="M71 19v362q0 7 5.5 13t13.5 6h19q13 0 16 -12l9 -31q6 6 18 15t48.5 23.5t73.5 14.5q155 0 155 -180v-211q0 -7 -5.5 -13t-13.5 -6h-32q-8 0 -13.5 6t-5.5 13v211q0 56 -23.5 84.5t-66.5 28.5q-33 0 -65.5 -14.5t-47.5 -28.5l-16 -14v-267q0 -7 -6 -13t-13 -6h-31
q-8 0 -13.5 6t-5.5 13zM169 561l-10 22q-6 13 6 19l150 84q4 4 13.5 3.5t12.5 -6.5l18 -36q8 -16 -6 -21l-161 -67q-18 -8 -23 2z" />
    <glyph glyph-name="Ncommaaccent" unicode="&#x145;" horiz-adv-x="774" 
d="M102 19v673q0 7 5.5 12.5t13.5 5.5h25l451 -562h2v533q0 8 5.5 13.5t13.5 5.5h35q7 0 13 -6t6 -13v-673q0 -7 -5.5 -12.5t-13.5 -5.5h-18l-459 573h-1v-544q0 -8 -5.5 -13.5t-13.5 -5.5h-35q-7 0 -13 6t-6 13zM388 -92q66 0 66 -90q0 -56 -26.5 -106t-57.5 -79
q-14 -12 -24 -2l-14 14q-10 10 6 24q62 56 62 126q-4 -1 -12 -1q-23 0 -40 17t-17 40q0 24 17 40.5t40 16.5z" />
    <glyph glyph-name="ncommaaccent" unicode="&#x146;" horiz-adv-x="497" 
d="M72 19v362q0 7 6 13t13 6h19q13 0 16 -12l9 -31q6 6 18 15t48.5 23.5t73.5 14.5q155 0 155 -180v-211q0 -7 -6 -13t-13 -6h-32q-7 0 -13 6t-6 13v211q0 56 -23.5 84.5t-66.5 28.5q-33 0 -65.5 -14.5t-48.5 -28.5l-15 -14v-267q0 -7 -5.5 -13t-13.5 -6h-31q-7 0 -13 6
t-6 13zM243 -92q66 0 66 -90q0 -56 -26.5 -106t-57.5 -79q-14 -12 -24 -2l-14 14q-10 10 6 24q62 56 62 126q-4 -1 -12 -1q-23 0 -40 17t-17 40q0 24 17 40.5t40 16.5z" />
    <glyph glyph-name="Ncaron" unicode="&#x147;" horiz-adv-x="774" 
d="M102 19v673q0 7 5.5 12.5t13.5 5.5h25l451 -562h2v533q0 8 5.5 13.5t13.5 5.5h35q7 0 13 -6t6 -13v-673q0 -7 -5.5 -12.5t-13.5 -5.5h-18l-459 573h-1v-544q0 -8 -5.5 -13.5t-13.5 -5.5h-35q-7 0 -13 6t-6 13zM392 768q-8 0 -13 4l-120 94q-13 9 -6 19l14 18q8 12 23 2
l102 -68l102 70q15 10 23 -2l14 -20q2 -3 2 -6t-1 -5.5t-4 -5.5t-5.5 -4.5t-6 -4t-4.5 -3.5l-107 -84q-5 -4 -13 -4z" />
    <glyph glyph-name="ncaron" unicode="&#x148;" horiz-adv-x="495" 
d="M71 19v362q0 7 5.5 13t13.5 6h19q13 0 16 -12l9 -31q6 6 18 15t48.5 23.5t73.5 14.5q155 0 155 -180v-211q0 -7 -5.5 -13t-13.5 -6h-32q-8 0 -13.5 6t-5.5 13v211q0 56 -23.5 84.5t-66.5 28.5q-33 0 -65.5 -14.5t-47.5 -28.5l-16 -14v-267q0 -7 -6 -13t-13 -6h-31
q-8 0 -13.5 6t-5.5 13zM238 546l-120 94q-13 9 -6 19l14 18q8 12 23 2l102 -68l102 70q15 10 23 -2l14 -20q2 -3 2 -6t-1 -5.5t-4 -5.5t-5.5 -4.5t-6 -4t-4.5 -3.5l-107 -84q-5 -4 -13 -4t-13 4z" />
    <glyph glyph-name="napostrophe" unicode="&#x149;" horiz-adv-x="495" 
d="M70 19v362q0 7 6 13t13 6h19q13 0 16 -12l9 -31q6 6 18 15t48.5 23.5t73.5 14.5q155 0 155 -180v-211q0 -7 -6 -13t-13 -6h-32q-7 0 -13 6t-6 13v211q0 56 -23.5 84.5t-66.5 28.5q-33 0 -65.5 -14.5t-48.5 -28.5l-15 -14v-267q0 -7 -5.5 -13t-13.5 -6h-31q-7 0 -13 6
t-6 13zM-50 710q66 0 66 -90q0 -56 -26.5 -106t-57.5 -79q-14 -12 -24 -2l-14 14q-10 10 6 24q62 56 62 126q-4 -1 -12 -1q-23 0 -40 17t-17 40q0 24 17 40.5t40 16.5z" />
    <glyph glyph-name="Eng" unicode="&#x14a;" horiz-adv-x="774" 
d="M102 19v673q0 7 5.5 12.5t13.5 5.5h25l451 -562h2v533q0 8 5.5 13.5t13.5 5.5h35q7 0 13 -6t6 -13v-821q0 -83 -42.5 -126.5t-110.5 -43.5q-67 0 -110 41q-12 10 -4 23l16 26q9 15 26 1q38 -29 73 -29q37 0 58.5 26.5t21.5 81.5v171l-424 532h-1v-544q0 -8 -5.5 -13.5
t-13.5 -5.5h-35q-7 0 -13 6t-6 13z" />
    <glyph glyph-name="eng" unicode="&#x14b;" horiz-adv-x="496" 
d="M71 19v362q0 7 5.5 13t13.5 6h19q13 0 16 -12l9 -31q6 6 18 15t48.5 23.5t73.5 14.5q155 0 155 -180v-370q0 -83 -42.5 -126.5t-110.5 -43.5q-67 0 -110 41q-12 10 -4 23l16 26q9 15 26 1q38 -29 73 -29q37 0 59.5 26.5t22.5 81.5v370q0 56 -23.5 84.5t-66.5 28.5
q-33 0 -65.5 -14.5t-47.5 -28.5l-16 -14v-267q0 -7 -6 -13t-13 -6h-31q-8 0 -13.5 6t-5.5 13z" />
    <glyph glyph-name="Omacron" unicode="&#x14c;" horiz-adv-x="821" 
d="M51 349q0 150 104.5 255.5t254.5 105.5t255 -105.5t105 -255.5t-105 -254.5t-255 -104.5t-254.5 104.5t-104.5 254.5zM121 349q0 -119 85 -204t204 -85t204.5 85t85.5 204t-85.5 205t-204.5 86t-204 -86t-85 -205zM283 821q-8 0 -13.5 5t-5.5 13v21q0 19 19 19h256
q19 0 19 -19v-21q0 -8 -5.5 -13t-13.5 -5h-256z" />
    <glyph glyph-name="omacron" unicode="&#x14d;" 
d="M42 201q0 85 58 147t141 62t141 -62t58 -147q0 -87 -58 -149t-141 -62t-141 62t-58 149zM111 201q0 -61 37.5 -103.5t92.5 -42.5t92.5 42.5t37.5 103.5q0 59 -37.5 101t-92.5 42t-92.5 -42t-37.5 -101zM114 583q-8 0 -13.5 5t-5.5 13v21q0 19 19 19h256q19 0 19 -19v-21
q0 -8 -5.5 -13t-13.5 -5h-256z" />
    <glyph glyph-name="Obreve" unicode="&#x14e;" horiz-adv-x="821" 
d="M51 349q0 150 104.5 255.5t254.5 105.5t255 -105.5t105 -255.5t-105 -254.5t-255 -104.5t-254.5 104.5t-104.5 254.5zM121 349q0 -119 85 -204t204 -85t204.5 85t85.5 204t-85.5 205t-204.5 86t-204 -86t-85 -205zM411 771q-52 0 -90 32.5t-45 81.5q-4 20 14 20h21
q13 0 19 -17q8 -29 30 -46.5t51 -17.5q27 0 48.5 18.5t30.5 45.5q6 17 19 17h23q18 0 14 -20q-8 -49 -46 -81.5t-89 -32.5z" />
    <glyph glyph-name="obreve" unicode="&#x14f;" 
d="M42 201q0 85 58 147t141 62t141 -62t58 -147q0 -87 -58 -149t-141 -62t-141 62t-58 149zM111 201q0 -61 37.5 -103.5t92.5 -42.5t92.5 42.5t37.5 103.5q0 59 -37.5 101t-92.5 42t-92.5 -42t-37.5 -101zM241 531q-52 0 -90 32.5t-45 81.5q-4 20 14 20h21q13 0 19 -17
q8 -29 30 -46.5t51 -17.5q27 0 48.5 18.5t30.5 45.5q6 17 19 17h23q18 0 14 -20q-8 -49 -46 -81.5t-89 -32.5z" />
    <glyph glyph-name="Ohungarumlaut" unicode="&#x150;" horiz-adv-x="821" 
d="M51 349q0 150 104.5 255.5t254.5 105.5t255 -105.5t105 -255.5t-105 -254.5t-255 -104.5t-254.5 104.5t-104.5 254.5zM121 349q0 -119 85 -204t204 -85t204.5 85t85.5 204t-85.5 205t-204.5 86t-204 -86t-85 -205zM507 769q-8 0 -14.5 6t-4.5 13l50 141q6 19 19 19h39
q14 0 19 -7.5t-1 -17.5l-78 -139q-8 -15 -18 -15h-11zM341 769q-8 0 -14.5 6t-4.5 13l50 141q6 19 19 19h39q14 0 19 -7.5t-1 -17.5l-78 -139q-8 -15 -18 -15h-11z" />
    <glyph glyph-name="ohungarumlaut" unicode="&#x151;" 
d="M42 201q0 85 58 147t141 62t141 -62t58 -147q0 -87 -58 -149t-141 -62t-141 62t-58 149zM111 201q0 -61 37.5 -103.5t92.5 -42.5t92.5 42.5t37.5 103.5q0 59 -37.5 101t-92.5 42t-92.5 -42t-37.5 -101zM332 521q-8 0 -14.5 6t-4.5 13l50 141q6 19 19 19h39q14 0 19 -7.5
t-1 -17.5l-78 -139q-7 -15 -18 -15h-11zM166 521q-8 0 -14.5 6t-4.5 13l50 141q6 19 19 19h39q14 0 19 -7.5t-1 -17.5l-78 -139q-7 -15 -18 -15h-11z" />
    <glyph glyph-name="OE" unicode="&#x152;" horiz-adv-x="967" 
d="M51 349q0 150 104.5 255.5t254.5 105.5q20 0 41.5 -2.5t32.5 -5.5l12 -2h394q8 0 13.5 -5.5t5.5 -13.5v-29q0 -8 -5.5 -13.5t-13.5 -5.5h-336v-244h287q7 0 13 -5.5t6 -13.5v-29q0 -8 -5.5 -13.5t-13.5 -5.5h-287v-255h336q8 0 13.5 -5.5t5.5 -13.5v-29q0 -8 -5.5 -13.5
t-13.5 -5.5h-394q-41 -10 -86 -10q-150 0 -254.5 104.5t-104.5 254.5zM121 349q0 -119 85 -204t204 -85q36 0 67 7v564q-35 8 -67 8q-119 0 -204 -85.5t-85 -204.5z" />
    <glyph glyph-name="oe" unicode="&#x153;" horiz-adv-x="779" 
d="M41 202q0 85 57.5 146.5t140.5 61.5q100 0 160 -86q57 86 161 86q77 0 129 -51t52 -132q0 -13 -2 -27q-2 -17 -18 -17h-286q7 -52 45.5 -90.5t86.5 -38.5q51 0 99 29q13 7 16 8t12 -6l17 -23q6 -8 6 -13t-10 -13q-58 -46 -147 -46q-103 0 -161 86q-60 -86 -160 -86
q-83 0 -140.5 62.5t-57.5 149.5zM436 238h237q-2 46 -34.5 77t-78.5 31q-50 0 -84.5 -30.5t-39.5 -77.5zM110 202q0 -61 37.5 -104t91.5 -43t91.5 43t37.5 104q0 59 -37 100.5t-92 41.5t-92 -41.5t-37 -100.5z" />
    <glyph glyph-name="Racute" unicode="&#x154;" horiz-adv-x="661" 
d="M102 19v662q0 8 5.5 13.5t13.5 5.5h259q90 0 154 -62t64 -151q0 -68 -40.5 -122.5t-107.5 -81.5l137 -254q6 -10 0.5 -19.5t-17.5 -9.5h-51q-11 0 -16 9l-133 265h-191v-255q0 -7 -5.5 -13t-13.5 -6h-39q-8 0 -13.5 5.5t-5.5 13.5zM181 340h194q58 0 101 42.5t43 103.5
q0 57 -43 99t-101 42h-194v-287zM226 783l-10 22q-6 13 6 19l150 84q4 4 13.5 3.5t12.5 -6.5l18 -36q8 -16 -6 -21l-161 -67q-18 -8 -23 2z" />
    <glyph glyph-name="racute" unicode="&#x155;" horiz-adv-x="334" 
d="M71 19v362q0 7 5.5 13t13.5 6h19q14 0 17 -14l8 -29q2 2 4.5 5.5t13.5 13t24 16.5t34 12.5t44 5.5q13 0 25 -1.5t24.5 -4.5t18.5 -10t2 -17l-12 -34q-6 -16 -24 -9q-18 8 -39 8q-34 0 -61 -14t-38 -28l-10 -14v-267q0 -7 -6 -13t-13 -6h-31q-8 0 -13.5 6t-5.5 13zM96 561
l-10 22q-6 13 6 19l150 84q4 4 13.5 3.5t12.5 -6.5l18 -36q8 -16 -6 -21l-161 -67q-18 -8 -23 2z" />
    <glyph glyph-name="Rcommaaccent" unicode="&#x156;" horiz-adv-x="660" 
d="M102 19v662q0 8 5.5 13.5t13.5 5.5h259q90 0 154 -62t64 -151q0 -68 -40.5 -122.5t-107.5 -81.5l137 -254q6 -10 0.5 -19.5t-17.5 -9.5h-51q-11 0 -16 9l-133 265h-191v-255q0 -7 -5.5 -13t-13.5 -6h-39q-8 0 -13.5 5.5t-5.5 13.5zM181 340h194q58 0 101 42.5t43 103.5
q0 57 -43 99t-101 42h-194v-287zM315 -92q66 0 66 -90q0 -56 -26.5 -106t-57.5 -79q-14 -12 -24 -2l-14 14q-10 10 6 24q62 56 62 126q-4 -1 -12 -1q-23 0 -40 17t-17 40q0 24 17 40.5t40 16.5z" />
    <glyph glyph-name="rcommaaccent" unicode="&#x157;" horiz-adv-x="334" 
d="M71 19v362q0 7 5.5 13t13.5 6h19q14 0 17 -14l8 -29q2 2 4.5 5.5t13.5 13t24 16.5t34 12.5t44 5.5q13 0 25 -1.5t24.5 -4.5t18.5 -10t2 -17l-12 -34q-6 -16 -24 -9q-18 8 -39 8q-34 0 -61 -14t-38 -28l-10 -14v-267q0 -7 -6 -13t-13 -6h-31q-8 0 -13.5 6t-5.5 13z
M106 -92q66 0 66 -90q0 -56 -26.5 -106t-57.5 -79q-14 -12 -24 -2l-14 14q-10 10 6 24q62 56 62 126q-4 -1 -12 -1q-23 0 -40 17t-17 40q0 24 17 40.5t40 16.5z" />
    <glyph glyph-name="Rcaron" unicode="&#x158;" horiz-adv-x="661" 
d="M102 19v662q0 8 5.5 13.5t13.5 5.5h259q90 0 154 -62t64 -151q0 -68 -40.5 -122.5t-107.5 -81.5l137 -254q6 -10 0.5 -19.5t-17.5 -9.5h-51q-11 0 -16 9l-133 265h-191v-255q0 -7 -5.5 -13t-13.5 -6h-39q-8 0 -13.5 5.5t-5.5 13.5zM181 340h194q58 0 101 42.5t43 103.5
q0 57 -43 99t-101 42h-194v-287zM306 768q-8 0 -13 4l-120 94q-13 9 -6 19l14 18q8 12 23 2l102 -68l102 70q15 10 23 -2l14 -20q2 -3 2 -6t-1 -5.5t-4 -5.5t-5.5 -4.5t-6 -4t-4.5 -3.5l-107 -84q-5 -4 -13 -4z" />
    <glyph glyph-name="rcaron" unicode="&#x159;" horiz-adv-x="334" 
d="M71 19v362q0 7 5.5 13t13.5 6h19q14 0 17 -14l8 -29q2 2 4.5 5.5t13.5 13t24 16.5t34 12.5t44 5.5q13 0 25 -1.5t24.5 -4.5t18.5 -10t2 -17l-12 -34q-6 -16 -24 -9q-18 8 -39 8q-34 0 -61 -14t-38 -28l-10 -14v-267q0 -7 -6 -13t-13 -6h-31q-8 0 -13.5 6t-5.5 13z
M158 546l-120 94q-13 9 -6 19l14 18q8 12 23 2l102 -68l102 70q15 10 23 -2l14 -20q2 -3 2 -6t-1 -5.5t-4 -5.5t-5.5 -4.5t-6 -4t-4.5 -3.5l-107 -84q-5 -4 -13 -4t-13 4z" />
    <glyph glyph-name="Sacute" unicode="&#x15a;" horiz-adv-x="533" 
d="M63 71q-18 15 -6 34q3 3 8 9.5t7 9.5q18 24 35 9q89 -76 169 -76q59 0 96.5 32t37.5 78q0 49 -41.5 84.5t-133.5 73.5q-92 40 -134 83.5t-42 123.5q0 28 11.5 57t35 57t67 46t99.5 18q44 0 86.5 -13t63.5 -25l21 -13q7 -3 10 -11t-4 -23q-2 -3 -6 -9.5t-6 -9.5
q-14 -21 -35 -9q-80 46 -131 46q-71 0 -104.5 -35t-33.5 -75q0 -48 33.5 -80.5t101.5 -60.5q115 -47 168.5 -94t53.5 -128q0 -77 -63.5 -128.5t-152.5 -51.5q-53 0 -104.5 19.5t-72 34t-34.5 27.5zM193 783l-10 22q-6 13 6 19l150 84q4 4 13.5 3.5t12.5 -6.5l18 -36
q8 -16 -6 -21l-161 -67q-18 -8 -23 2z" />
    <glyph glyph-name="sacute" unicode="&#x15b;" horiz-adv-x="356" 
d="M52 35q-10 8 -5 21q2 3 7.5 13t6.5 12q9 14 27 3q43 -35 94 -35q30 0 47.5 13.5t17.5 34.5q0 24 -19 39.5t-69 40.5q-33 16 -54.5 30t-40.5 40.5t-19 58.5q0 38 32 71t95 33q66 0 111 -31q17 -11 6 -31l-8 -16q-11 -19 -29 -9q-43 24 -80 24q-30 0 -43.5 -12t-13.5 -28
t12 -29t23 -19t39 -20q33 -16 51 -26t39.5 -26.5t31 -37t9.5 -46.5q0 -45 -39 -79t-99 -34q-72 0 -130 45zM102 561l-10 22q-6 13 6 19l150 84q4 4 13.5 3.5t12.5 -6.5l18 -36q8 -16 -6 -21l-161 -67q-18 -8 -23 2z" />
    <glyph glyph-name="Scircumflex" unicode="&#x15c;" horiz-adv-x="533" 
d="M63 71q-18 15 -6 34q3 3 8 9.5t7 9.5q18 24 35 9q89 -76 169 -76q59 0 96.5 32t37.5 78q0 49 -41.5 84.5t-133.5 73.5q-92 40 -134 83.5t-42 123.5q0 28 11.5 57t35 57t67 46t99.5 18q44 0 86.5 -13t63.5 -25l21 -13q7 -3 10 -11t-4 -23q-2 -3 -6 -9.5t-6 -9.5
q-14 -21 -35 -9q-80 46 -131 46q-71 0 -104.5 -35t-33.5 -75q0 -48 33.5 -80.5t101.5 -60.5q115 -47 168.5 -94t53.5 -128q0 -77 -63.5 -128.5t-152.5 -51.5q-53 0 -104.5 19.5t-72 34t-34.5 27.5zM148 775l-14 18q-7 10 6 19l120 94q5 4 13 4t13 -4l120 -94q13 -9 6 -19
q-2 -2 -5.5 -8t-6 -9t-6.5 -6.5t-8.5 -3t-10.5 4.5l-102 70l-102 -68q-15 -10 -23 2z" />
    <glyph glyph-name="scircumflex" unicode="&#x15d;" horiz-adv-x="356" 
d="M52 35q-10 8 -5 21q2 3 7.5 13t6.5 12q9 14 27 3q43 -35 94 -35q30 0 47.5 13.5t17.5 34.5q0 24 -19 39.5t-69 40.5q-33 16 -54.5 30t-40.5 40.5t-19 58.5q0 38 32 71t95 33q66 0 111 -31q17 -11 6 -31l-8 -16q-11 -19 -29 -9q-43 24 -80 24q-30 0 -43.5 -12t-13.5 -28
t12 -29t23 -19t39 -20q33 -16 51 -26t39.5 -26.5t31 -37t9.5 -46.5q0 -45 -39 -79t-99 -34q-72 0 -130 45zM59 555l-14 18q-7 10 6 19l120 94q5 4 13 4t13 -4l120 -94q13 -9 6 -19q-2 -2 -5.5 -8t-6 -9t-6.5 -6.5t-8.5 -3t-10.5 4.5l-102 70l-102 -68q-15 -10 -23 2z" />
    <glyph glyph-name="Scedilla" unicode="&#x15e;" horiz-adv-x="534" 
d="M64 71q-18 15 -6 34l15 19q18 24 35 9q89 -76 169 -76q59 0 96.5 32t37.5 78q0 49 -41.5 84.5t-133.5 73.5q-92 40 -134 83.5t-42 123.5q0 28 11.5 57t35 57t67 46t99.5 18q44 0 86.5 -13t63.5 -25l21 -13q7 -3 10 -11t-4 -23l-12 -19q-14 -21 -35 -9q-81 46 -131 46
q-71 0 -104.5 -35t-33.5 -75q0 -48 33.5 -80.5t101.5 -60.5q115 -47 168.5 -94t53.5 -128q0 -73 -58 -123.5t-142 -55.5v-44q47 -6 76 -33.5t29 -69.5q0 -44 -30.5 -74t-74.5 -30q-46 0 -76 35q-14 16 0 26l14 11q14 10 23 0q17 -18 41 -18q20 0 32 13t12 34t-15 35.5
t-30 19t-38 8.5q-17 3 -17 20v69q-44 5 -85.5 23.5t-59.5 31.5t-28 23z" />
    <glyph glyph-name="scedilla" unicode="&#x15f;" horiz-adv-x="358" 
d="M53 35q-10 8 -5 21q2 3 7.5 13t6.5 12q9 14 27 3q43 -35 94 -35q30 0 47.5 13.5t17.5 34.5q0 24 -19 39.5t-69 40.5q-33 16 -54.5 30t-40.5 40.5t-19 58.5q0 38 32 71t95 33q66 0 111 -31q17 -11 6 -31l-8 -16q-11 -19 -29 -9q-43 24 -80 24q-30 0 -43.5 -12t-13.5 -28
t12 -29t23 -19t39 -20q33 -16 51 -26t39.5 -26.5t31 -37t9.5 -46.5q0 -42 -34.5 -75t-88.5 -37v-44q47 -6 76 -33.5t29 -69.5q0 -44 -30.5 -74t-74.5 -30q-46 0 -76 35q-14 16 0 26l14 11q14 10 23 0q17 -18 41 -18q20 0 32 13t12 34t-15 35.5t-30 19t-38 8.5q-17 3 -17 20
v70q-51 8 -91 41z" />
    <glyph glyph-name="Scaron" unicode="&#x160;" horiz-adv-x="533" 
d="M63 71q-18 15 -6 34q3 3 8 9.5t7 9.5q18 24 35 9q89 -76 169 -76q59 0 96.5 32t37.5 78q0 49 -41.5 84.5t-133.5 73.5q-92 40 -134 83.5t-42 123.5q0 28 11.5 57t35 57t67 46t99.5 18q44 0 86.5 -13t63.5 -25l21 -13q7 -3 10 -11t-4 -23q-2 -3 -6 -9.5t-6 -9.5
q-14 -21 -35 -9q-80 46 -131 46q-71 0 -104.5 -35t-33.5 -75q0 -48 33.5 -80.5t101.5 -60.5q115 -47 168.5 -94t53.5 -128q0 -77 -63.5 -128.5t-152.5 -51.5q-53 0 -104.5 19.5t-72 34t-34.5 27.5zM273 768q-8 0 -13 4l-120 94q-13 9 -6 19l14 18q8 12 23 2l102 -68l102 70
q15 10 23 -2l14 -20q2 -3 2 -6t-1 -5.5t-4 -5.5t-5.5 -4.5t-6 -4t-4.5 -3.5l-107 -84q-5 -4 -13 -4z" />
    <glyph glyph-name="scaron" unicode="&#x161;" horiz-adv-x="356" 
d="M52 35q-10 8 -5 21q2 3 7.5 13t6.5 12q9 14 27 3q43 -35 94 -35q30 0 47.5 13.5t17.5 34.5q0 24 -19 39.5t-69 40.5q-33 16 -54.5 30t-40.5 40.5t-19 58.5q0 38 32 71t95 33q66 0 111 -31q17 -11 6 -31l-8 -16q-11 -19 -29 -9q-43 24 -80 24q-30 0 -43.5 -12t-13.5 -28
t12 -29t23 -19t39 -20q33 -16 51 -26t39.5 -26.5t31 -37t9.5 -46.5q0 -45 -39 -79t-99 -34q-72 0 -130 45zM174 546l-120 94q-13 9 -6 19l14 18q8 12 23 2l102 -68l102 70q15 10 23 -2l14 -20q2 -3 2 -6t-1 -5.5t-4 -5.5t-5.5 -4.5t-6 -4t-4.5 -3.5l-107 -84q-5 -4 -13 -4
t-13 4z" />
    <glyph glyph-name="Tcommaaccent" unicode="&#x162;" horiz-adv-x="478" 
d="M201 19v614h-174q-8 0 -13.5 5.5t-5.5 13.5v29q0 8 5.5 13.5t13.5 5.5h424q8 0 13.5 -5.5t5.5 -13.5v-29q0 -8 -5.5 -13.5t-13.5 -5.5h-174v-614q0 -7 -5.5 -13t-13.5 -6h-38q-8 0 -13.5 6t-5.5 13zM236 -92q66 0 66 -90q0 -56 -26.5 -106t-57.5 -79q-14 -12 -24 -2
l-14 14q-10 10 6 24q62 56 62 126q-4 -1 -12 -1q-23 0 -40 17t-17 40q0 24 17 40.5t40 16.5z" />
    <glyph glyph-name="tcommaaccent" unicode="&#x163;" horiz-adv-x="343" 
d="M97 100v240h-51q-8 0 -13.5 5.5t-5.5 13.5v22q0 19 19 19h51v111q0 7 5.5 13t13.5 6l32 2q7 0 12.5 -5.5t5.5 -13.5v-113h116q19 0 19 -19v-22q0 -8 -5.5 -13.5t-13.5 -5.5h-116v-234q0 -29 7.5 -38.5t25.5 -9.5q32 0 73 22q15 8 24 -6l15 -25q9 -15 -7 -25t-50 -22
t-65 -12q-55 0 -73.5 28t-18.5 82zM184 -92q66 0 66 -90q0 -56 -26.5 -106t-57.5 -79q-14 -12 -24 -2l-14 14q-10 10 6 24q62 56 62 126q-4 -1 -12 -1q-23 0 -40 17t-17 40q0 24 17 40.5t40 16.5z" />
    <glyph glyph-name="Tcaron" unicode="&#x164;" horiz-adv-x="478" 
d="M201 19v614h-174q-8 0 -13.5 5.5t-5.5 13.5v29q0 8 5.5 13.5t13.5 5.5h424q8 0 13.5 -5.5t5.5 -13.5v-29q0 -8 -5.5 -13.5t-13.5 -5.5h-174v-614q0 -7 -5.5 -13t-13.5 -6h-38q-8 0 -13.5 6t-5.5 13zM238 768q-8 0 -13 4l-120 94q-13 9 -6 19l14 18q8 12 23 2l102 -68
l102 70q15 10 23 -2l14 -20q2 -3 2 -6t-1 -5.5t-4 -5.5t-5.5 -4.5t-6 -4t-4.5 -3.5l-107 -84q-5 -4 -13 -4z" />
    <glyph glyph-name="tcaron" unicode="&#x165;" horiz-adv-x="342" 
d="M97 100v240h-51q-8 0 -13.5 5.5t-5.5 13.5v22q0 19 19 19h51v111q0 7 5.5 13t13.5 6l32 2q7 0 12.5 -5.5t5.5 -13.5v-113h116q19 0 19 -19v-22q0 -8 -5.5 -13.5t-13.5 -5.5h-116v-234q0 -29 7.5 -38.5t25.5 -9.5q32 0 73 22q15 8 24 -6l15 -25q9 -15 -7 -25t-50 -22
t-65 -12q-55 0 -73.5 28t-18.5 82zM372 434l-14 14q-10 10 6 24q62 56 62 126q-4 -1 -12 -1q-23 0 -40 17t-17 40q0 24 17 40.5t40 16.5q66 0 66 -90q0 -56 -26.5 -106t-57.5 -79q-14 -12 -24 -2z" />
    <glyph glyph-name="Tbar" unicode="&#x166;" horiz-adv-x="478" 
d="M201 19v276h-104q-7 0 -12.5 5.5t-5.5 13.5v7q0 8 5.5 13.5t12.5 5.5h104v293h-174q-8 0 -13.5 5.5t-5.5 13.5v29q0 8 5.5 13.5t13.5 5.5h424q8 0 13.5 -5.5t5.5 -13.5v-29q0 -8 -5.5 -13.5t-13.5 -5.5h-174v-293h104q8 0 13.5 -5.5t5.5 -13.5v-8q0 -8 -5.5 -13t-13.5 -5
h-104v-276q0 -7 -5.5 -13t-13.5 -6h-38q-8 0 -13.5 6t-5.5 13z" />
    <glyph glyph-name="tbar" unicode="&#x167;" horiz-adv-x="342" 
d="M97 100v73h-41q-7 0 -12.5 5.5t-5.5 13.5v7q0 8 5.5 13.5t12.5 5.5h41v122h-51q-8 0 -13.5 5.5t-5.5 13.5v22q0 19 19 19h51v111q0 7 5.5 13t13.5 6l32 2q7 0 12.5 -5.5t5.5 -13.5v-113h116q19 0 19 -19v-22q0 -8 -5.5 -13.5t-13.5 -5.5h-116v-122h94q8 0 13.5 -5.5
t5.5 -13.5v-8q0 -8 -5.5 -13t-13.5 -5h-94v-67q0 -29 7.5 -38.5t25.5 -9.5q32 0 73 22q15 8 24 -6l15 -25q9 -15 -7 -25t-50 -22t-65 -12q-55 0 -73.5 28t-18.5 82z" />
    <glyph glyph-name="Utilde" unicode="&#x168;" horiz-adv-x="716" 
d="M93 258v423q0 7 5.5 13t13.5 6h38q8 0 13.5 -5.5t5.5 -13.5v-417q0 -88 51 -145.5t137 -57.5q87 0 138.5 57t51.5 144v419q0 8 5.5 13.5t13.5 5.5h38q8 0 13.5 -6t5.5 -13v-423q0 -115 -74.5 -191.5t-191.5 -76.5q-116 0 -190 76.5t-74 191.5zM237 795l-18 9q-11 6 -4 22
q0 1 6 15t11.5 23t15.5 21t25 18.5t34 6.5q26 0 46.5 -18.5t36 -37t27.5 -18.5q30 0 45 51q5 16 23 8l16 -8q10 -5 4 -26q-28 -81 -89 -81q-24 0 -45.5 19t-37.5 37.5t-27 18.5q-12 0 -22 -9t-13.5 -17.5t-8.5 -23.5q-6 -20 -25 -10z" />
    <glyph glyph-name="utilde" unicode="&#x169;" horiz-adv-x="485" 
d="M66 171v210q0 7 6 13t13 6h32q7 0 13 -6t6 -13v-211q0 -56 23.5 -84.5t66.5 -28.5q34 0 63.5 14.5t42.5 28.5l13 14v267q0 7 5.5 13t13.5 6h31q7 0 13 -6t6 -13v-362q0 -7 -6 -13t-13 -6h-19q-13 0 -18 17l-7 26l-5.5 -5.5t-16 -13t-26.5 -16.5t-36.5 -12.5t-45.5 -5.5
q-155 0 -155 181zM120 575l-18 9q-11 6 -4 22q0 1 6 15t11.5 23t15.5 21t25 18.5t34 6.5q26 0 46.5 -18.5t36 -37t27.5 -18.5q30 0 45 51q5 16 23 8l16 -8q10 -5 4 -26q-28 -81 -89 -81q-24 0 -45.5 19t-37.5 37.5t-27 18.5q-12 0 -22 -9t-13.5 -17.5t-8.5 -23.5
q-6 -20 -25 -10z" />
    <glyph glyph-name="Umacron" unicode="&#x16a;" horiz-adv-x="716" 
d="M93 258v423q0 7 5.5 13t13.5 6h38q8 0 13.5 -5.5t5.5 -13.5v-417q0 -88 51 -145.5t137 -57.5q87 0 138.5 57t51.5 144v419q0 8 5.5 13.5t13.5 5.5h38q8 0 13.5 -6t5.5 -13v-423q0 -115 -74.5 -191.5t-191.5 -76.5q-116 0 -190 76.5t-74 191.5zM229 821q-8 0 -13.5 5
t-5.5 13v21q0 19 19 19h256q19 0 19 -19v-21q0 -8 -5.5 -13t-13.5 -5h-256z" />
    <glyph glyph-name="umacron" unicode="&#x16b;" horiz-adv-x="485" 
d="M66 171v210q0 7 6 13t13 6h32q7 0 13 -6t6 -13v-211q0 -56 23.5 -84.5t66.5 -28.5q34 0 63.5 14.5t42.5 28.5l13 14v267q0 7 5.5 13t13.5 6h31q7 0 13 -6t6 -13v-362q0 -7 -6 -13t-13 -6h-19q-13 0 -18 17l-7 26l-5.5 -5.5t-16 -13t-26.5 -16.5t-36.5 -12.5t-45.5 -5.5
q-155 0 -155 181zM113 583q-8 0 -13.5 5t-5.5 13v21q0 19 19 19h256q19 0 19 -19v-21q0 -8 -5.5 -13t-13.5 -5h-256z" />
    <glyph glyph-name="Ubreve" unicode="&#x16c;" horiz-adv-x="716" 
d="M93 258v423q0 7 5.5 13t13.5 6h38q8 0 13.5 -5.5t5.5 -13.5v-417q0 -88 51 -145.5t137 -57.5q87 0 138.5 57t51.5 144v419q0 8 5.5 13.5t13.5 5.5h38q8 0 13.5 -6t5.5 -13v-423q0 -115 -74.5 -191.5t-191.5 -76.5q-116 0 -190 76.5t-74 191.5zM356 771q-52 0 -90 32.5
t-45 81.5q-4 20 14 20h21q13 0 19 -17q8 -29 30 -46.5t51 -17.5q27 0 48.5 18.5t30.5 45.5q6 17 19 17h23q18 0 14 -20q-8 -49 -46 -81.5t-89 -32.5z" />
    <glyph glyph-name="ubreve" unicode="&#x16d;" horiz-adv-x="485" 
d="M66 171v210q0 7 6 13t13 6h32q7 0 13 -6t6 -13v-211q0 -56 23.5 -84.5t66.5 -28.5q34 0 63.5 14.5t42.5 28.5l13 14v267q0 7 5.5 13t13.5 6h31q7 0 13 -6t6 -13v-362q0 -7 -6 -13t-13 -6h-19q-13 0 -18 17l-7 26l-5.5 -5.5t-16 -13t-26.5 -16.5t-36.5 -12.5t-45.5 -5.5
q-155 0 -155 181zM245 531q-52 0 -90 32.5t-45 81.5q-4 20 14 20h21q13 0 19 -17q8 -29 30 -46.5t51 -17.5q27 0 48.5 18.5t30.5 45.5q6 17 19 17h23q18 0 14 -20q-8 -49 -46 -81.5t-89 -32.5z" />
    <glyph glyph-name="Uring" unicode="&#x16e;" horiz-adv-x="716" 
d="M93 258v423q0 7 5.5 13t13.5 6h38q8 0 13.5 -5.5t5.5 -13.5v-417q0 -88 51 -145.5t137 -57.5q87 0 138.5 57t51.5 144v419q0 8 5.5 13.5t13.5 5.5h38q8 0 13.5 -6t5.5 -13v-423q0 -115 -74.5 -191.5t-191.5 -76.5q-116 0 -190 76.5t-74 191.5zM356 758q-46 0 -77.5 31.5
t-31.5 77.5t31.5 77.5t77.5 31.5q45 0 77 -31.5t32 -77.5t-32 -77.5t-77 -31.5zM356 806q24 0 41.5 18.5t17.5 42.5t-17.5 41.5t-41.5 17.5t-42.5 -17.5t-18.5 -41.5t18.5 -42.5t42.5 -18.5z" />
    <glyph glyph-name="uring" unicode="&#x16f;" horiz-adv-x="485" 
d="M66 171v210q0 7 6 13t13 6h32q7 0 13 -6t6 -13v-211q0 -56 23.5 -84.5t66.5 -28.5q34 0 63.5 14.5t42.5 28.5l13 14v267q0 7 5.5 13t13.5 6h31q7 0 13 -6t6 -13v-362q0 -7 -6 -13t-13 -6h-19q-13 0 -18 17l-7 26l-5.5 -5.5t-16 -13t-26.5 -16.5t-36.5 -12.5t-45.5 -5.5
q-155 0 -155 181zM244 492q-46 0 -77.5 31.5t-31.5 77.5t31.5 77.5t77.5 31.5q45 0 77 -31.5t32 -77.5t-32 -77.5t-77 -31.5zM244 540q24 0 41.5 18.5t17.5 42.5t-17.5 41.5t-41.5 17.5t-42.5 -17.5t-18.5 -41.5t18.5 -42.5t42.5 -18.5z" />
    <glyph glyph-name="Uhungarumlaut" unicode="&#x170;" horiz-adv-x="716" 
d="M93 258v423q0 7 5.5 13t13.5 6h38q8 0 13.5 -5.5t5.5 -13.5v-417q0 -88 51 -145.5t137 -57.5q87 0 138.5 57t51.5 144v419q0 8 5.5 13.5t13.5 5.5h38q8 0 13.5 -6t5.5 -13v-423q0 -115 -74.5 -191.5t-191.5 -76.5q-116 0 -190 76.5t-74 191.5zM445 769q-8 0 -14.5 6
t-4.5 13l50 141q6 19 19 19h39q14 0 19 -7.5t-1 -17.5l-78 -139q-8 -15 -18 -15h-11zM279 769q-8 0 -14.5 6t-4.5 13l50 141q6 19 19 19h39q14 0 19 -7.5t-1 -17.5l-78 -139q-8 -15 -18 -15h-11z" />
    <glyph glyph-name="uhungarumlaut" unicode="&#x171;" horiz-adv-x="485" 
d="M66 171v210q0 7 6 13t13 6h32q7 0 13 -6t6 -13v-211q0 -56 23.5 -84.5t66.5 -28.5q34 0 63.5 14.5t42.5 28.5l13 14v267q0 7 5.5 13t13.5 6h31q7 0 13 -6t6 -13v-362q0 -7 -6 -13t-13 -6h-19q-13 0 -18 17l-7 26l-5.5 -5.5t-16 -13t-26.5 -16.5t-36.5 -12.5t-45.5 -5.5
q-155 0 -155 181zM326 521q-8 0 -14.5 6t-4.5 13l50 141q6 19 19 19h39q14 0 19 -7.5t-1 -17.5l-78 -139q-7 -15 -18 -15h-11zM160 521q-8 0 -14.5 6t-4.5 13l50 141q6 19 19 19h39q14 0 19 -7.5t-1 -17.5l-78 -139q-7 -15 -18 -15h-11z" />
    <glyph glyph-name="Uogonek" unicode="&#x172;" horiz-adv-x="720" 
d="M95 258v423q0 7 5.5 13t13.5 6h38q8 0 13.5 -5.5t5.5 -13.5v-417q0 -88 51 -145.5t137 -57.5q87 0 138.5 57t51.5 144v419q0 8 5.5 13.5t13.5 5.5h38q8 0 13.5 -6t5.5 -13v-423q0 -109 -67 -184t-175 -83q-39 -41 -39 -90q0 -24 17 -40.5t40 -16.5q25 0 55 16q6 3 12 -1
t6 -13v-25q0 -9 -14 -17q-30 -15 -70 -15q-45 0 -75.5 26t-30.5 76q0 56 45 101q-104 10 -169 84t-65 182z" />
    <glyph glyph-name="uogonek" unicode="&#x173;" horiz-adv-x="485" 
d="M66 171v210q0 7 6 13t13 6h32q7 0 13 -6t6 -13v-211q0 -56 23.5 -84.5t66.5 -28.5q34 0 63.5 14.5t42.5 28.5l13 14v267q0 7 5.5 13t13.5 6h31q7 0 13 -6t6 -13v-362q0 -15 -15 -19q-48 -42 -48 -99q0 -24 17 -40.5t40 -16.5q25 0 55 16q6 3 12 -1t6 -13v-25
q0 -9 -14 -17q-30 -15 -70 -15q-45 0 -75.5 26t-30.5 76q0 34 17.5 64t34.5 43l17 13l-9 32l-5.5 -5.5t-16 -13t-26.5 -16.5t-36.5 -12.5t-45.5 -5.5q-155 0 -155 181z" />
    <glyph glyph-name="Wcircumflex" unicode="&#x174;" horiz-adv-x="902" 
d="M226 4l-189 672q-3 10 2 17t16 7h42q14 0 18 -14l139 -518h4l167 531q4 11 17 11h18q13 0 17 -11l170 -531h4l136 518q4 14 18 14h42q11 0 16 -7t2 -17l-189 -672q-4 -14 -18 -14h-16q-12 0 -17 11l-173 541h-5l-170 -541q-5 -11 -17 -11h-16q-14 0 -18 14zM325 775
l-14 18q-7 10 6 19l120 94q5 4 13 4t13 -4l120 -94q13 -9 6 -19q-2 -2 -5.5 -8t-6 -9t-6.5 -6.5t-8.5 -3t-10.5 4.5l-102 70l-102 -68q-15 -10 -23 2z" />
    <glyph glyph-name="wcircumflex" unicode="&#x175;" horiz-adv-x="604" 
d="M144 0l-111 377q-7 23 15 23h31q14 0 18 -11l73 -264h1l113 275q4 10 17 10h5q13 0 17 -10l112 -276h1l72 265q4 11 17 11h31q22 0 15 -23l-109 -377q-3 -10 -17 -10h-5q-13 0 -17 10l-122 300l-118 -300q-4 -10 -17 -10h-5q-14 0 -17 10zM176 555l-14 18q-7 10 6 19
l120 94q5 4 13 4t13 -4l120 -94q13 -9 6 -19q-2 -2 -5.5 -8t-6 -9t-6.5 -6.5t-8.5 -3t-10.5 4.5l-102 70l-102 -68q-15 -10 -23 2z" />
    <glyph glyph-name="Ycircumflex" unicode="&#x176;" horiz-adv-x="565" 
d="M243 19v318l-241 334q-6 10 -1 19.5t17 9.5h47q9 0 16 -9l202 -279l202 279q7 9 16 9h47q12 0 17 -9.5t-1 -19.5l-244 -333v-319q0 -7 -6 -13t-13 -6h-39q-8 0 -13.5 5.5t-5.5 13.5zM158 775l-14 18q-7 10 6 19l120 94q5 4 13 4t13 -4l120 -94q13 -9 6 -19q-2 -2 -5.5 -8
t-6 -9t-6.5 -6.5t-8.5 -3t-10.5 4.5l-102 70l-102 -68q-15 -10 -23 2z" />
    <glyph glyph-name="ycircumflex" unicode="&#x177;" horiz-adv-x="466" 
d="M200 1l-186 377q-5 10 -0.5 16t15.5 6h44q11 0 17 -11l148 -306h1l140 306q5 11 17 11h38q11 0 15.5 -6.5t-0.5 -16.5l-307 -665q-6 -12 -17 -12h-37q-11 0 -16 7t0 18zM114 555l-14 18q-7 10 6 19l120 94q5 4 13 4t13 -4l120 -94q13 -9 6 -19q-2 -2 -5.5 -8t-6 -9
t-6.5 -6.5t-8.5 -3t-10.5 4.5l-102 70l-102 -68q-15 -10 -23 2z" />
    <glyph glyph-name="Ydieresis" unicode="&#x178;" horiz-adv-x="565" 
d="M243 19v318l-241 334q-6 10 -1 19.5t17 9.5h47q9 0 16 -9l202 -279l202 279q7 9 16 9h47q12 0 17 -9.5t-1 -19.5l-244 -333v-319q0 -7 -6 -13t-13 -6h-39q-8 0 -13.5 5.5t-5.5 13.5zM388 792q-20 0 -33.5 14t-13.5 33q0 20 13.5 34t33.5 14t34 -14t14 -34t-14 -33.5
t-34 -13.5zM177 792q-19 0 -33 14t-14 33q0 20 13.5 34t33.5 14t34 -14t14 -34t-14 -33.5t-34 -13.5z" />
    <glyph glyph-name="Zacute" unicode="&#x179;" horiz-adv-x="534" 
d="M30 19v18l363 590v3h-315q-8 0 -13.5 6t-5.5 13v32q0 7 5.5 13t13.5 6h405q7 0 13 -6t6 -13v-13l-369 -597v-1h330q8 0 13.5 -5.5t5.5 -13.5v-32q0 -8 -5.5 -13.5t-13.5 -5.5h-414q-7 0 -13 6t-6 13zM205 783l-10 22q-6 13 6 19l150 84q4 4 13.5 3.5t12.5 -6.5l18 -36
q8 -16 -6 -21l-161 -67q-18 -8 -23 2z" />
    <glyph glyph-name="zacute" unicode="&#x17a;" horiz-adv-x="365" 
d="M36 19v10l196 305v3h-168q-7 0 -12.5 5.5t-5.5 13.5v25q0 8 5 13.5t13 5.5h251q11 0 17 -8.5t0 -18.5l-191 -307v-3h154q19 0 19 -19v-25q0 -8 -5.5 -13.5t-13.5 -5.5h-240q-7 0 -13 6t-6 13zM95 561l-10 22q-6 13 6 19l150 84q4 4 13.5 3.5t12.5 -6.5l18 -36
q8 -16 -6 -21l-161 -67q-18 -8 -23 2z" />
    <glyph glyph-name="Zdotaccent" unicode="&#x17b;" horiz-adv-x="534" 
d="M30 19v18l363 590v3h-315q-8 0 -13.5 6t-5.5 13v32q0 7 5.5 13t13.5 6h405q7 0 13 -6t6 -13v-13l-369 -597v-1h330q8 0 13.5 -5.5t5.5 -13.5v-32q0 -8 -5.5 -13.5t-13.5 -5.5h-414q-7 0 -13 6t-6 13zM285 796q-23 0 -40 17t-17 40q0 24 17 40.5t40 16.5q24 0 40.5 -16.5
t16.5 -40.5q0 -23 -16.5 -40t-40.5 -17z" />
    <glyph glyph-name="zdotaccent" unicode="&#x17c;" horiz-adv-x="365" 
d="M36 19v10l196 305v3h-168q-7 0 -12.5 5.5t-5.5 13.5v25q0 8 5 13.5t13 5.5h251q11 0 17 -8.5t0 -18.5l-191 -307v-3h154q19 0 19 -19v-25q0 -8 -5.5 -13.5t-13.5 -5.5h-240q-7 0 -13 6t-6 13zM190 566q-23 0 -40 17t-17 40q0 24 17 40.5t40 16.5q24 0 40.5 -16.5
t16.5 -40.5q0 -23 -16.5 -40t-40.5 -17z" />
    <glyph glyph-name="Zcaron" unicode="&#x17d;" horiz-adv-x="534" 
d="M30 19v18l363 590v3h-315q-8 0 -13.5 6t-5.5 13v32q0 7 5.5 13t13.5 6h405q7 0 13 -6t6 -13v-13l-369 -597v-1h330q8 0 13.5 -5.5t5.5 -13.5v-32q0 -8 -5.5 -13.5t-13.5 -5.5h-414q-7 0 -13 6t-6 13zM285 768q-8 0 -13 4l-120 94q-13 9 -6 19l14 18q8 12 23 2l102 -68
l102 70q15 10 23 -2l14 -20q2 -3 2 -6t-1 -5.5t-4 -5.5t-5.5 -4.5t-6 -4t-4.5 -3.5l-107 -84q-5 -4 -13 -4z" />
    <glyph glyph-name="zcaron" unicode="&#x17e;" horiz-adv-x="365" 
d="M36 19v10l196 305v3h-168q-7 0 -12.5 5.5t-5.5 13.5v25q0 8 5 13.5t13 5.5h251q11 0 17 -8.5t0 -18.5l-191 -307v-3h154q19 0 19 -19v-25q0 -8 -5.5 -13.5t-13.5 -5.5h-240q-7 0 -13 6t-6 13zM177 546l-120 94q-13 9 -6 19l14 18q8 12 23 2l102 -68l102 70q15 10 23 -2
l14 -20q2 -3 2 -6t-1 -5.5t-4 -5.5t-5.5 -4.5t-6 -4t-4.5 -3.5l-107 -84q-5 -4 -13 -4t-13 4z" />
    <glyph glyph-name="florin" unicode="&#x192;" horiz-adv-x="323" 
d="M103 -140v480h-61q-8 0 -13.5 5.5t-5.5 13.5v22q0 19 19 19h61v140q0 83 42.5 126.5t110.5 43.5q67 0 110 -41q12 -10 4 -23l-16 -26q-9 -15 -26 -1q-38 29 -73 29q-37 0 -60 -26.5t-23 -81.5v-140h116q19 0 19 -19v-22q0 -8 -5.5 -13.5t-13.5 -5.5h-116v-480
q0 -83 -42.5 -126.5t-110.5 -43.5q-67 0 -110 41q-12 10 -4 23l16 26q9 15 26 1q38 -29 73 -29q37 0 60 26.5t23 81.5z" />
    <glyph glyph-name="Aringacute" unicode="&#x1fa;" horiz-adv-x="663" 
d="M241 903l-10 22q-6 13 6 19l150 84q4 4 13.5 3.5t12.5 -6.5l18 -36q8 -16 -6 -21l-161 -67q-18 -8 -23 2zM23 0q-11 0 -16.5 8t-0.5 18l290 643q-33 11 -53.5 39.5t-20.5 64.5q0 46 31.5 77.5t77.5 31.5q45 0 77 -31.5t32 -77.5q0 -36 -20.5 -64t-52.5 -39l289 -644
q5 -10 -0.5 -18t-16.5 -8h-40q-13 0 -17 11l-74 165h-355l-73 -165q-4 -11 -17 -11h-40zM331 712q24 0 41.5 18.5t17.5 42.5t-17.5 41.5t-41.5 17.5t-42.5 -17.5t-18.5 -41.5t18.5 -42.5t42.5 -18.5zM181 238h300l-146 328h-8z" />
    <glyph glyph-name="aringacute" unicode="&#x1fb;" horiz-adv-x="419" 
d="M42 121q0 59 42.5 96t117.5 37q19 0 40.5 -3t33.5 -7l11 -3q1 60 -11.5 84t-53.5 24q-63 0 -120 -22q-14 -6 -19 10l-8 25q-5 15 11 22q6 3 21.5 8t49.5 11.5t68 6.5q74 0 100.5 -38.5t26.5 -130.5v-222q0 -7 -6 -13t-13 -6h-19q-12 0 -17 15l-8 27q-52 -52 -124 -52
q-53 0 -88 36t-35 95zM106 121q0 -31 19 -51t51 -20q35 0 65 17.5t45 38.5v79q-27 16 -84 16q-43 0 -69.5 -21t-26.5 -59zM203 436q-46 0 -77.5 31.5t-31.5 77.5t31.5 77.5t77.5 31.5q45 0 77 -31.5t32 -77.5t-32 -77.5t-77 -31.5zM203 484q24 0 41.5 18.5t17.5 42.5
t-17.5 41.5t-41.5 17.5t-42.5 -17.5t-18.5 -41.5t18.5 -42.5t42.5 -18.5zM109 665l-10 22q-6 13 6 19l150 84q4 4 13.5 3.5t12.5 -6.5l18 -36q8 -16 -6 -21l-161 -67q-18 -8 -23 2z" />
    <glyph glyph-name="AEacute" unicode="&#x1fc;" horiz-adv-x="897" 
d="M6 0q-11 0 -14.5 8t2.5 18l401 643q15 24 25 28q7 3 19 3h381q8 0 13.5 -5.5t5.5 -13.5v-29q0 -8 -5.5 -13.5t-13.5 -5.5h-342v-244h293q7 0 13 -5.5t6 -13.5v-29q0 -8 -5.5 -13.5t-13.5 -5.5h-293v-255h342q8 0 13.5 -5.5t5.5 -13.5v-29q0 -8 -5.5 -13.5t-13.5 -5.5
h-394q-8 0 -13.5 5.5t-5.5 13.5v157h-237l-104 -165q-9 -11 -19 -11h-41zM206 238h201v328zM525 784l-10 22q-6 13 6 19l150 84q4 4 13.5 3.5t12.5 -6.5l18 -36q8 -16 -6 -21l-161 -67q-18 -8 -23 2z" />
    <glyph glyph-name="aeacute" unicode="&#x1fd;" horiz-adv-x="690" 
d="M43 124q0 57 39.5 93t108.5 36q24 0 46.5 -1.5t33.5 -3.5l11 -1q1 60 -9.5 82t-46.5 22q-55 0 -127 -24q-17 -5 -21 14l-5 25q-3 15 16 20q64 24 140 24q86 0 109 -55q57 55 134 55q76 0 128 -51t52 -132q0 -44 -20 -44h-280v-61q18 -31 51.5 -49t74.5 -18q53 0 99 28
q13 7 16 8t12 -6l17 -23q6 -8 6 -13t-10 -13q-61 -46 -147 -46q-98 0 -151 71q-22 -29 -61.5 -50t-84.5 -21q-59 0 -95 36.5t-36 97.5zM354 240h230q-2 46 -34.5 77t-78.5 31q-36 0 -68.5 -19t-48.5 -48v-41zM106 122q0 -36 23.5 -54t57.5 -18q30 0 56.5 15t40.5 36v89
q-29 9 -83 9q-40 0 -67.5 -20.5t-27.5 -56.5zM294 561l-10 22q-6 13 6 19l150 84q4 4 13.5 3.5t12.5 -6.5l18 -36q8 -16 -6 -21l-161 -67q-18 -8 -23 2z" />
    <glyph glyph-name="Oslashacute" unicode="&#x1fe;" horiz-adv-x="821" 
d="M81 22q-13 14 -1 26l61 61q-90 103 -90 240q0 150 104.5 255.5t254.5 105.5q136 0 240 -91l63 63q13 13 26 0l5 -5q13 -13 0 -26l-63 -63q89 -104 89 -239q0 -150 -105 -254.5t-255 -104.5q-137 0 -238 88l-61 -61q-5 -5 -13 -4.5t-13 5.5zM192 160l408 409
q-82 71 -190 71q-119 0 -204 -86t-85 -205q0 -107 71 -189zM223 129q80 -69 187 -69q119 0 204.5 85t85.5 204q0 108 -70 188zM330 783l-10 22q-6 13 6 19l150 84q4 4 13.5 3.5t12.5 -6.5l18 -36q8 -16 -6 -21l-161 -67q-18 -8 -23 2z" />
    <glyph glyph-name="oslashacute" unicode="&#x1ff;" horiz-adv-x="480" 
d="M68 29q-14 13 -1 26l16 16q-40 58 -40 131q0 85 57.5 146.5t140.5 61.5q73 0 128 -50l21 21q14 14 27 0l5 -5q6 -5 6 -13t-6 -13l-23 -23q40 -56 40 -125q0 -87 -57.5 -149.5t-140.5 -62.5q-74 0 -128 48l-14 -14q-12 -13 -27 0zM132 120l190 193q-34 31 -81 31
q-55 0 -92 -41.5t-37 -100.5q0 -47 20 -82zM160 85q35 -30 81 -30q54 0 91.5 43t37.5 104q0 42 -20 76zM150 561l-10 22q-6 13 6 19l150 84q4 4 13.5 3.5t12.5 -6.5l18 -36q8 -16 -6 -21l-161 -67q-18 -8 -23 2z" />
    <glyph glyph-name="Scommaaccent" unicode="&#x218;" horiz-adv-x="533" 
d="M63 71q-18 15 -6 34q3 3 8 9.5t7 9.5q18 24 35 9q89 -76 169 -76q59 0 96.5 32t37.5 78q0 49 -41.5 84.5t-133.5 73.5q-92 40 -134 83.5t-42 123.5q0 28 11.5 57t35 57t67 46t99.5 18q44 0 86.5 -13t63.5 -25l21 -13q7 -3 10 -11t-4 -23q-2 -3 -6 -9.5t-6 -9.5
q-14 -21 -35 -9q-80 46 -131 46q-71 0 -104.5 -35t-33.5 -75q0 -48 33.5 -80.5t101.5 -60.5q115 -47 168.5 -94t53.5 -128q0 -77 -63.5 -128.5t-152.5 -51.5q-53 0 -104.5 19.5t-72 34t-34.5 27.5zM275 -92q66 0 66 -90q0 -56 -26.5 -106t-57.5 -79q-14 -12 -24 -2l-14 14
q-10 10 6 24q62 56 62 126q-4 -1 -12 -1q-23 0 -40 17t-17 40q0 24 17 40.5t40 16.5z" />
    <glyph glyph-name="scommaaccent" unicode="&#x219;" horiz-adv-x="356" 
d="M52 35q-10 8 -5 21q2 3 7.5 13t6.5 12q9 14 27 3q43 -35 94 -35q30 0 47.5 13.5t17.5 34.5q0 24 -19 39.5t-69 40.5q-33 16 -54.5 30t-40.5 40.5t-19 58.5q0 38 32 71t95 33q66 0 111 -31q17 -11 6 -31l-8 -16q-11 -19 -29 -9q-43 24 -80 24q-30 0 -43.5 -12t-13.5 -28
t12 -29t23 -19t39 -20q33 -16 51 -26t39.5 -26.5t31 -37t9.5 -46.5q0 -45 -39 -79t-99 -34q-72 0 -130 45zM180 -92q66 0 66 -90q0 -56 -26.5 -106t-57.5 -79q-14 -12 -24 -2l-14 14q-10 10 6 24q62 56 62 126q-4 -1 -12 -1q-23 0 -40 17t-17 40q0 24 17 40.5t40 16.5z" />
    <glyph glyph-name="uni021A" unicode="&#x21a;" horiz-adv-x="478" 
d="M201 19v614h-174q-8 0 -13.5 5.5t-5.5 13.5v29q0 8 5.5 13.5t13.5 5.5h424q8 0 13.5 -5.5t5.5 -13.5v-29q0 -8 -5.5 -13.5t-13.5 -5.5h-174v-614q0 -7 -5.5 -13t-13.5 -6h-38q-8 0 -13.5 6t-5.5 13zM237 -92q66 0 66 -90q0 -56 -26.5 -106t-57.5 -79q-14 -12 -24 -2
l-14 14q-10 10 6 24q62 56 62 126q-4 -1 -12 -1q-23 0 -40 17t-17 40q0 24 17 40.5t40 16.5z" />
    <glyph glyph-name="uni021B" unicode="&#x21b;" horiz-adv-x="343" 
d="M97 100v240h-51q-8 0 -13.5 5.5t-5.5 13.5v22q0 19 19 19h51v111q0 7 5.5 13t13.5 6l32 2q7 0 12.5 -5.5t5.5 -13.5v-113h116q19 0 19 -19v-22q0 -8 -5.5 -13.5t-13.5 -5.5h-116v-234q0 -29 7.5 -38.5t25.5 -9.5q32 0 73 22q15 8 24 -6l15 -25q9 -15 -7 -25t-50 -22
t-65 -12q-55 0 -73.5 28t-18.5 82zM184 -92q66 0 66 -90q0 -56 -26.5 -106t-57.5 -79q-14 -12 -24 -2l-14 14q-10 10 6 24q62 56 62 126q-4 -1 -12 -1q-23 0 -40 17t-17 40q0 24 17 40.5t40 16.5z" />
    <glyph glyph-name="dotlessj" unicode="&#x237;" horiz-adv-x="213" 
d="M72 -140v521q0 8 5.5 13.5t13.5 5.5h31q8 0 13.5 -5.5t5.5 -13.5v-521q0 -83 -42.5 -126.5t-110.5 -43.5q-67 0 -110 41q-12 10 -4 23l16 26q9 15 26 1q38 -29 73 -29q37 0 60 26.5t23 81.5z" />
    <glyph glyph-name="circumflex" unicode="&#x2c6;" horiz-adv-x="373" 
d="M60 555l-14 18q-7 10 6 19l120 94q5 4 13 4t13 -4l120 -94q13 -9 6 -19q-2 -2 -5.5 -8t-6 -9t-6.5 -6.5t-8.5 -3t-10.5 4.5l-102 70l-102 -68q-15 -10 -23 2z" />
    <glyph glyph-name="caron" unicode="&#x2c7;" horiz-adv-x="373" 
d="M172 546l-120 94q-13 9 -6 19l14 18q8 12 23 2l102 -68l102 70q15 10 23 -2l14 -20q2 -3 2 -6t-1 -5.5t-4 -5.5t-5.5 -4.5t-6 -4t-4.5 -3.5l-107 -84q-5 -4 -13 -4t-13 4z" />
    <glyph glyph-name="uni02C9" unicode="&#x2c9;" horiz-adv-x="414" 
d="M79 583q-8 0 -13.5 5t-5.5 13v21q0 19 19 19h256q19 0 19 -19v-21q0 -8 -5.5 -13t-13.5 -5h-256z" />
    <glyph glyph-name="breve" unicode="&#x2d8;" horiz-adv-x="346" 
d="M173 531q-52 0 -90 32.5t-45 81.5q-4 20 14 20h21q13 0 19 -17q8 -29 30 -46.5t51 -17.5q27 0 48.5 18.5t30.5 45.5q6 17 19 17h23q18 0 14 -20q-8 -49 -46 -81.5t-89 -32.5z" />
    <glyph glyph-name="dotaccent" unicode="&#x2d9;" horiz-adv-x="219" 
d="M108 566q-23 0 -40 17t-17 40q0 24 17 40.5t40 16.5q24 0 40.5 -16.5t16.5 -40.5q0 -23 -16.5 -40t-40.5 -17z" />
    <glyph glyph-name="ring" unicode="&#x2da;" horiz-adv-x="290" 
d="M145 492q-46 0 -77.5 31.5t-31.5 77.5t31.5 77.5t77.5 31.5q45 0 77 -31.5t32 -77.5t-32 -77.5t-77 -31.5zM145 540q24 0 41.5 18.5t17.5 42.5t-17.5 41.5t-41.5 17.5t-42.5 -17.5t-18.5 -41.5t18.5 -42.5t42.5 -18.5z" />
    <glyph glyph-name="ogonek" unicode="&#x2db;" horiz-adv-x="276" 
d="M112 11h51q-7 -5 -17 -14.5t-26.5 -38t-16.5 -57.5q0 -24 17 -40.5t40 -16.5q25 0 55 16q6 3 12 -1t6 -13v-25q0 -9 -14 -17q-30 -15 -70 -15q-45 0 -75.5 26t-30.5 76q0 34 17.5 64t34.5 43z" />
    <glyph glyph-name="tilde" unicode="&#x2dc;" horiz-adv-x="380" 
d="M64 575l-18 9q-11 6 -4 22q0 1 6 15t11.5 23t15.5 21t25 18.5t34 6.5q26 0 46.5 -18.5t36 -37t27.5 -18.5q30 0 45 51q5 16 23 8l16 -8q10 -5 4 -26q-28 -81 -89 -81q-24 0 -45.5 19t-37.5 37.5t-27 18.5q-12 0 -22 -9t-13.5 -17.5t-8.5 -23.5q-6 -20 -25 -10z" />
    <glyph glyph-name="hungarumlaut" unicode="&#x2dd;" horiz-adv-x="392" 
d="M241 521q-8 0 -14.5 6t-4.5 13l50 141q6 19 19 19h39q14 0 19 -7.5t-1 -17.5l-78 -139q-8 -15 -18 -15h-11zM75 521q-8 0 -14.5 6t-4.5 13l50 141q6 19 19 19h39q14 0 19 -7.5t-1 -17.5l-78 -139q-8 -15 -18 -15h-11z" />
    <glyph glyph-name="uni0394" unicode="&#x394;" horiz-adv-x="686" 
d="M48 0q-38 0 -18 39l298 666q5 9 14 9h5q9 0 14 -9l297 -668q17 -37 -18 -37h-592zM123 71h439l-217 502h-2z" />
    <glyph glyph-name="uni03A9" unicode="&#x3a9;" horiz-adv-x="780" 
d="M49 15v41q0 6 4.5 10.5t10.5 4.5h111q-68 40 -107 116t-39 165q0 150 105 254t255 104t255 -104t105 -254q0 -89 -39 -165t-106 -116h111q6 0 10.5 -4.5t4.5 -10.5v-41q0 -6 -4.5 -10.5t-10.5 -4.5h-249q-14 0 -14 15v29q0 14 17 22q92 29 151 108t59 175q0 118 -86 204
t-204 86t-203.5 -86t-85.5 -204q0 -96 59 -175t151 -108q16 -8 16 -22v-29q0 -15 -14 -15h-248q-6 0 -10.5 4.5t-4.5 10.5z" />
    <glyph glyph-name="uni03BC" unicode="&#x3bc;" horiz-adv-x="505" 
d="M142 10v-291q0 -7 -6 -13t-13 -6h-31q-8 0 -13.5 6t-5.5 13v662q0 7 5.5 13t13.5 6h32q8 0 13.5 -6t5.5 -13v-211q0 -56 23.5 -84.5t66.5 -28.5q34 0 63.5 14.5t42.5 28.5l13 14v267q0 7 6 13t13 6h31q8 0 13.5 -6t5.5 -13v-362q0 -7 -5.5 -13t-13.5 -6h-19q-13 0 -18 17
l-7 26l-5.5 -5.5t-16 -13t-26.5 -16.5t-36.5 -12.5t-45.5 -5.5q-52 0 -86 20z" />
    <glyph glyph-name="pi" unicode="&#x3c0;" horiz-adv-x="631" 
d="M140 15v324h-107q-6 0 -10.5 4.5t-4.5 10.5v31q0 6 4.5 10.5t10.5 4.5h562q15 0 15 -14v-33q0 -14 -15 -14h-108v-324q0 -15 -15 -15h-39q-6 0 -10.5 4.5t-4.5 10.5v324h-209v-324q0 -15 -16 -15h-38q-6 0 -10.5 4.5t-4.5 10.5z" />
    <glyph glyph-name="Wgrave" unicode="&#x1e80;" horiz-adv-x="902" 
d="M226 4l-189 672q-3 10 2 17t16 7h42q14 0 18 -14l139 -518h4l167 531q4 11 17 11h18q13 0 17 -11l170 -531h4l136 518q4 14 18 14h42q11 0 16 -7t2 -17l-189 -672q-4 -14 -18 -14h-16q-12 0 -17 11l-173 541h-5l-170 -541q-5 -11 -17 -11h-16q-14 0 -18 14zM517 781
l-161 67q-14 5 -6 21l18 36q3 6 12.5 6.5t13.5 -3.5l150 -84q12 -6 6 -19l-10 -22q-5 -10 -23 -2z" />
    <glyph glyph-name="wgrave" unicode="&#x1e81;" horiz-adv-x="604" 
d="M144 0l-111 377q-7 23 15 23h31q14 0 18 -11l73 -264h1l113 275q4 10 17 10h5q13 0 17 -10l112 -276h1l72 265q4 11 17 11h31q22 0 15 -23l-109 -377q-3 -10 -17 -10h-5q-13 0 -17 10l-122 300l-118 -300q-4 -10 -17 -10h-5q-14 0 -17 10zM368 559l-161 67q-14 5 -6 21
l18 36q3 6 12.5 6.5t13.5 -3.5l150 -84q12 -6 6 -19l-10 -22q-5 -10 -23 -2z" />
    <glyph glyph-name="Wacute" unicode="&#x1e82;" horiz-adv-x="902" 
d="M226 4l-189 672q-3 10 2 17t16 7h42q14 0 18 -14l139 -518h4l167 531q4 11 17 11h18q13 0 17 -11l170 -531h4l136 518q4 14 18 14h42q11 0 16 -7t2 -17l-189 -672q-4 -14 -18 -14h-16q-12 0 -17 11l-173 541h-5l-170 -541q-5 -11 -17 -11h-16q-14 0 -18 14zM360 783
l-10 22q-6 13 6 19l150 84q4 4 13.5 3.5t12.5 -6.5l18 -36q8 -16 -6 -21l-161 -67q-18 -8 -23 2z" />
    <glyph glyph-name="wacute" unicode="&#x1e83;" horiz-adv-x="604" 
d="M144 0l-111 377q-7 23 15 23h31q14 0 18 -11l73 -264h1l113 275q4 10 17 10h5q13 0 17 -10l112 -276h1l72 265q4 11 17 11h31q22 0 15 -23l-109 -377q-3 -10 -17 -10h-5q-13 0 -17 10l-122 300l-118 -300q-4 -10 -17 -10h-5q-14 0 -17 10zM213 561l-10 22q-6 13 6 19
l150 84q4 4 13.5 3.5t12.5 -6.5l18 -36q8 -16 -6 -21l-161 -67q-18 -8 -23 2z" />
    <glyph glyph-name="Wdieresis" unicode="&#x1e84;" horiz-adv-x="902" 
d="M226 4l-189 672q-3 10 2 17t16 7h42q14 0 18 -14l139 -518h4l167 531q4 11 17 11h18q13 0 17 -11l170 -531h4l136 518q4 14 18 14h42q11 0 16 -7t2 -17l-189 -672q-4 -14 -18 -14h-16q-12 0 -17 11l-173 541h-5l-170 -541q-5 -11 -17 -11h-16q-14 0 -18 14zM555 792
q-19 0 -33 14t-14 33q0 20 13.5 34t33.5 14t34 -14t14 -34t-14 -33.5t-34 -13.5zM344 792q-20 0 -33.5 14t-13.5 33q0 20 13.5 34t33.5 14t34 -14t14 -34t-14 -33.5t-34 -13.5z" />
    <glyph glyph-name="wdieresis" unicode="&#x1e85;" horiz-adv-x="604" 
d="M144 0l-111 377q-7 23 15 23h31q14 0 18 -11l73 -264h1l113 275q4 10 17 10h5q13 0 17 -10l112 -276h1l72 265q4 11 17 11h31q22 0 15 -23l-109 -377q-3 -10 -17 -10h-5q-13 0 -17 10l-122 300l-118 -300q-4 -10 -17 -10h-5q-14 0 -17 10zM397 585q-19 0 -33 13.5
t-14 33.5t13.5 34t33.5 14t34 -14t14 -34t-14 -33.5t-34 -13.5zM204 585q-20 0 -33.5 13.5t-13.5 33.5t13.5 34t33.5 14t34 -14t14 -34t-14 -33.5t-34 -13.5z" />
    <glyph glyph-name="Ygrave" unicode="&#x1ef2;" horiz-adv-x="565" 
d="M243 19v318l-241 334q-6 10 -1 19.5t17 9.5h47q9 0 16 -9l202 -279l202 279q7 9 16 9h47q12 0 17 -9.5t-1 -19.5l-244 -333v-319q0 -7 -6 -13t-13 -6h-39q-8 0 -13.5 5.5t-5.5 13.5zM350 781l-161 67q-14 5 -6 21l18 36q3 6 12.5 6.5t13.5 -3.5l150 -84q12 -6 6 -19
l-10 -22q-5 -10 -23 -2z" />
    <glyph glyph-name="ygrave" unicode="&#x1ef3;" horiz-adv-x="466" 
d="M200 1l-186 377q-5 10 -0.5 16t15.5 6h44q11 0 17 -11l148 -306h1l140 306q5 11 17 11h38q11 0 15.5 -6.5t-0.5 -16.5l-307 -665q-6 -12 -17 -12h-37q-11 0 -16 7t0 18zM306 559l-161 67q-14 5 -6 21l18 36q3 6 12.5 6.5t13.5 -3.5l150 -84q12 -6 6 -19l-10 -22
q-5 -10 -23 -2z" />
    <glyph glyph-name="endash" unicode="&#x2013;" horiz-adv-x="577" 
d="M104 223q-8 0 -13.5 5t-5.5 13v11q0 19 19 19h369q19 0 19 -19v-11q0 -8 -5.5 -13t-13.5 -5h-369z" />
    <glyph glyph-name="emdash" unicode="&#x2014;" horiz-adv-x="797" 
d="M104 223q-8 0 -13.5 5t-5.5 13v11q0 19 19 19h589q19 0 19 -19v-11q0 -8 -5.5 -13t-13.5 -5h-589z" />
    <glyph glyph-name="quoteleft" unicode="&#x2018;" horiz-adv-x="204" 
d="M104 427q-66 0 -66 90q0 56 26.5 106t57.5 79q14 12 24 2l14 -14q10 -10 -6 -24q-62 -56 -62 -126q4 1 12 1q23 0 40 -17t17 -40q0 -24 -17 -40.5t-40 -16.5z" />
    <glyph glyph-name="quoteright" unicode="&#x2019;" horiz-adv-x="202" 
d="M60 434l-14 14q-10 10 6 24q62 56 62 126q-4 -1 -12 -1q-23 0 -40 17t-17 40q0 24 17 40.5t40 16.5q66 0 66 -90q0 -56 -26.5 -106t-57.5 -79q-14 -12 -24 -2z" />
    <glyph glyph-name="quotesinglbase" unicode="&#x201a;" horiz-adv-x="233" 
d="M55 47q0 24 17 40.5t40 16.5q66 0 66 -90q0 -56 -26.5 -106t-57.5 -79q-14 -12 -24 -2l-14 14q-10 10 6 24q62 56 62 126q-4 -1 -12 -1q-23 0 -40 17t-17 40z" />
    <glyph glyph-name="quotedblleft" unicode="&#x201c;" horiz-adv-x="384" 
d="M284 429q-66 0 -66 90q0 56 26.5 106t57.5 79q14 12 24 2l14 -14q10 -10 -6 -24q-62 -56 -62 -126q4 1 12 1q23 0 40 -17t17 -40q0 -24 -17 -40.5t-40 -16.5zM104 429q-66 0 -66 90q0 56 26.5 106t57.5 79q14 12 24 2l14 -14q10 -10 -6 -24q-62 -56 -62 -126q4 1 12 1
q23 0 40 -17t17 -40q0 -24 -17 -40.5t-40 -16.5z" />
    <glyph glyph-name="quotedblright" unicode="&#x201d;" horiz-adv-x="382" 
d="M240 434l-14 14q-10 10 6 24q62 56 62 126q-4 -1 -12 -1q-23 0 -40 17t-17 40q0 24 17 40.5t40 16.5q66 0 66 -90q0 -56 -26.5 -106t-57.5 -79q-14 -12 -24 -2zM60 434l-14 14q-10 10 6 24q62 56 62 126q-4 -1 -12 -1q-23 0 -40 17t-17 40q0 24 17 40.5t40 16.5
q66 0 66 -90q0 -56 -26.5 -106t-57.5 -79q-14 -12 -24 -2z" />
    <glyph glyph-name="quotedblbase" unicode="&#x201e;" horiz-adv-x="413" 
d="M235 47q0 24 17 40.5t40 16.5q66 0 66 -90q0 -56 -26.5 -106t-57.5 -79q-14 -12 -24 -2l-14 14q-10 10 6 24q62 56 62 126q-4 -1 -12 -1q-23 0 -40 17t-17 40zM55 47q0 24 17 40.5t40 16.5q66 0 66 -90q0 -56 -26.5 -106t-57.5 -79q-14 -12 -24 -2l-14 14q-10 10 6 24
q62 56 62 126q-4 -1 -12 -1q-23 0 -40 17t-17 40z" />
    <glyph glyph-name="dagger" unicode="&#x2020;" horiz-adv-x="618" 
d="M69 334q-7 0 -13 6t-6 13v28q0 7 6 13t13 6h195v281q0 7 6 13t13 6h50q7 0 13 -6t6 -13v-281h198q7 0 12.5 -5.5t5.5 -13.5v-28q0 -8 -5.5 -13.5t-12.5 -5.5h-200l-17 -618q0 -6 -6 -11t-13 -5h-12q-7 0 -13 5t-6 11l-17 618h-197z" />
    <glyph glyph-name="daggerdbl" unicode="&#x2021;" horiz-adv-x="618" 
d="M80 19v28q0 7 6 13t13 6h174l-9 333v1h-195q-7 0 -13 6t-6 13v28q0 7 6 13t13 6h195v215q0 7 6 13t13 6h50q7 0 13 -6t6 -13v-215h198q7 0 12.5 -5.5t5.5 -13.5v-28q0 -8 -5.5 -13.5t-12.5 -5.5h-198l-9 -334h177q7 0 12.5 -5.5t5.5 -13.5v-28q0 -8 -5.5 -13.5
t-12.5 -5.5h-179l-8 -284q0 -6 -6 -11t-13 -5h-12q-7 0 -13 5t-6 11l-8 284h-176q-7 0 -13 6t-6 13z" />
    <glyph glyph-name="bullet" unicode="&#x2022;" horiz-adv-x="354" 
d="M175 119q-43 0 -74 31t-31 74q0 45 31 77t74 32q45 0 77 -32t32 -77q0 -43 -32 -74t-77 -31z" />
    <glyph glyph-name="ellipsis" unicode="&#x2026;" horiz-adv-x="624" 
d="M450 47q0 24 17 40.5t40 16.5q24 0 40.5 -16.5t16.5 -40.5q0 -23 -16.5 -40t-40.5 -17q-23 0 -40 17t-17 40zM253 47q0 24 17 40.5t40 16.5q24 0 40.5 -16.5t16.5 -40.5q0 -23 -16.5 -40t-40.5 -17q-23 0 -40 17t-17 40zM60 47q0 24 17 40.5t40 16.5q24 0 40.5 -16.5
t16.5 -40.5q0 -23 -16.5 -40t-40.5 -17q-23 0 -40 17t-17 40z" />
    <glyph glyph-name="perthousand" unicode="&#x2030;" horiz-adv-x="986" 
d="M185 441q-56 0 -95.5 39.5t-39.5 95.5t39.5 95.5t95.5 39.5t95.5 -39.5t39.5 -95.5t-39.5 -95.5t-95.5 -39.5zM143 27l343 663q6 10 17 10h16q11 0 16.5 -8.5t0.5 -18.5l-345 -663q-5 -10 -17 -10h-14q-11 0 -16.5 8.5t-0.5 18.5zM185 498q31 0 53.5 22.5t22.5 55.5
q0 31 -22.5 53.5t-53.5 22.5q-33 0 -55.5 -22.5t-22.5 -53.5q0 -33 22.5 -55.5t55.5 -22.5zM676 124q0 56 39.5 95.5t95.5 39.5t95.5 -39.5t39.5 -95.5t-39.5 -95.5t-95.5 -39.5t-95.5 39.5t-39.5 95.5zM366 124q0 56 39.5 95.5t95.5 39.5t95.5 -39.5t39.5 -95.5
t-39.5 -95.5t-95.5 -39.5t-95.5 39.5t-39.5 95.5zM733 124q0 -33 22.5 -55.5t55.5 -22.5q31 0 53.5 22.5t22.5 55.5q0 31 -22.5 53.5t-53.5 22.5q-33 0 -55.5 -22.5t-22.5 -53.5zM423 124q0 -33 22.5 -55.5t55.5 -22.5q31 0 53.5 22.5t22.5 55.5q0 31 -22.5 53.5t-53.5 22.5
q-33 0 -55.5 -22.5t-22.5 -53.5z" />
    <glyph glyph-name="guilsinglleft" unicode="&#x2039;" horiz-adv-x="252" 
d="M145 39l-104 155q-8 11 0 24l109 148q9 12 18 12h14q13 0 17 -9.5t-2 -21.5l-74 -139l71 -147q6 -12 1.5 -21t-16.5 -9h-19q-9 0 -15 8z" />
    <glyph glyph-name="guilsinglright" unicode="&#x203a;" horiz-adv-x="252" 
d="M72 31q-12 0 -16.5 9t1.5 21l71 147l-74 139q-6 12 -2 21.5t17 9.5h14q10 0 18 -12l109 -148q8 -13 0 -24l-104 -155q-6 -8 -15 -8h-19z" />
    <glyph glyph-name="fraction" unicode="&#x2044;" horiz-adv-x="119" 
d="M-79 10q-5 -10 -17 -10h-14q-11 0 -16.5 8.5t-0.5 18.5l343 663q6 10 17 10h16q11 0 16.5 -8.5t0.5 -18.5z" />
    <glyph glyph-name="zerosuperior" unicode="&#x2070;" horiz-adv-x="348" 
d="M174 494q-59 0 -91.5 41.5t-32.5 115.5q0 75 32.5 116.5t91.5 41.5t91.5 -41.5t32.5 -116.5q0 -74 -32.5 -115.5t-91.5 -41.5zM174 542q33 0 51 28.5t18 80.5q0 53 -18 81.5t-51 28.5t-51 -28.5t-18 -81.5q0 -52 18 -80.5t51 -28.5z" />
    <glyph glyph-name="foursuperior" unicode="&#x2074;" horiz-adv-x="361" 
d="M219 504q-10 0 -10 9v50h-150q-9 0 -9 9v29l172 196q3 3 8 3h21q10 0 10 -9v-185h41q9 0 9 -8v-26q0 -8 -9 -8h-41v-51q0 -9 -10 -9h-32zM105 607h106v118z" />
    <glyph glyph-name="fivesuperior" unicode="&#x2075;" horiz-adv-x="323" 
d="M155 494q-63 0 -98 38q-8 9 -1 15l21 20q7 5 12 0q3 -3 10.5 -8.5t24.5 -12t33 -6.5q28 0 46 17t18 40q0 24 -17 39t-49 15h-77q-15 0 -15 16v124q0 9 9 9h156q9 0 9 -9v-27q0 -8 -9 -8h-117v-60h48q54 0 84.5 -26.5t30.5 -71.5q0 -43 -34 -73.5t-85 -30.5z" />
    <glyph glyph-name="sixsuperior" unicode="&#x2076;" horiz-adv-x="324" 
d="M164 494q-54 0 -84 38.5t-30 95.5q0 42 19 77.5t48 57.5t52 34t42 18q8 3 12 -6l10 -23q5 -10 -9 -13q-29 -9 -67 -34.5t-49 -59.5q28 17 64 17q41 0 71.5 -26t30.5 -72q0 -43 -32.5 -73.5t-77.5 -30.5zM165 541q25 0 42.5 17t17.5 40t-18 39.5t-44 16.5q-22 0 -40 -11
t-26 -23q1 -29 19 -54t49 -25z" />
    <glyph glyph-name="sevensuperior" unicode="&#x2077;" horiz-adv-x="319" 
d="M79 504q-9 0 -9 7v7l132 237h-143q-9 0 -9 9v27q0 9 9 9h201q9 0 9 -9v-11l-143 -267q-5 -9 -13 -9h-34z" />
    <glyph glyph-name="eightsuperior" unicode="&#x2078;" horiz-adv-x="321" 
d="M159 494q-49 0 -79 23.5t-30 60.5q0 26 20 48.5t37 29.5v2q-18 8 -33.5 27t-15.5 43q0 37 29 59.5t73 22.5t73.5 -22.5t29.5 -59.5q0 -23 -15.5 -42t-34.5 -28v-2q21 -9 39.5 -30.5t18.5 -47.5q0 -37 -30.5 -60.5t-81.5 -23.5zM160 680q50 9 50 45q0 18 -14.5 30
t-36.5 12q-20 0 -34 -12t-14 -30q0 -36 49 -45zM160 537q24 0 40.5 12t16.5 32q0 17 -15 31.5t-42 19.5q-26 -5 -41 -19.5t-15 -31.5q0 -20 16.5 -32t39.5 -12z" />
    <glyph glyph-name="ninesuperior" unicode="&#x2079;" horiz-adv-x="324" 
d="M113 487q-8 -3 -12 6l-10 23q-5 10 9 13q29 9 67 34.5t49 59.5q-28 -17 -64 -17q-41 0 -71.5 26t-30.5 72q0 43 32.5 73.5t77.5 30.5q54 0 84 -38.5t30 -95.5q0 -42 -19 -77.5t-48 -57.5t-52 -34t-42 -18zM161 648q22 0 40 11t26 23q-1 29 -19 54t-49 25q-25 0 -42.5 -17
t-17.5 -40t18 -39.5t44 -16.5z" />
    <glyph glyph-name="zeroinferior" unicode="&#x2080;" horiz-adv-x="348" 
d="M50 -3q0 75 32.5 116.5t91.5 41.5t91.5 -41.5t32.5 -116.5q0 -74 -32.5 -115.5t-91.5 -41.5t-91.5 41.5t-32.5 115.5zM105 -3q0 -52 18 -80.5t51 -28.5t51 28.5t18 80.5q0 53 -18 81.5t-51 28.5t-51 -28.5t-18 -81.5z" />
    <glyph glyph-name="oneinferior" unicode="&#x2081;" horiz-adv-x="211" 
d="M56 62l-5 17q-1 7 3 11l70 56h28q9 0 9 -9v-278q0 -9 -9 -9h-35q-10 0 -10 9v210l-41 -11q-9 -2 -10 4z" />
    <glyph glyph-name="twoinferior" unicode="&#x2082;" horiz-adv-x="313" 
d="M78 79l-20 21q-6 6 0 11q4 5 12 12.5t33.5 20t51.5 12.5q52 0 80 -25t28 -64t-49 -90l-81 -83h121q9 0 9 -10v-25q0 -9 -9 -9h-194q-10 0 -10 9v14l127 133q32 35 32 56q0 18 -14.5 32.5t-42.5 14.5q-32 0 -62 -30q-6 -6 -12 0z" />
    <glyph glyph-name="threeinferior" unicode="&#x2083;" horiz-adv-x="320" 
d="M100 12q0 9 10 9h31q32 0 48.5 12.5t16.5 31.5q0 20 -16 32.5t-38 12.5q-32 0 -56 -24q-6 -6 -13 0l-20 18q-8 6 0 12q38 40 93 40q45 0 75 -23t30 -60q0 -24 -16 -43t-36 -27v-2q22 -8 41.5 -28.5t19.5 -46.5q0 -37 -31.5 -61.5t-82.5 -24.5q-65 0 -103 41q-6 6 1 11
l21 20q7 4 13 -1q39 -26 66 -26q24 0 42 12.5t18 32.5t-18.5 34t-54.5 14h-31q-10 0 -10 9v25z" />
    <glyph glyph-name="fourinferior" unicode="&#x2084;" horiz-adv-x="361" 
d="M50 -53l172 196q3 3 8 3h21q10 0 10 -9v-185h41q9 0 9 -8v-26q0 -8 -9 -8h-41v-51q0 -9 -10 -9h-32q-10 0 -10 9v50h-150q-9 0 -9 9v29zM105 -47h106v118z" />
    <glyph glyph-name="fiveinferior" unicode="&#x2085;" horiz-adv-x="323" 
d="M63 13v124q0 9 9 9h156q9 0 9 -9v-27q0 -8 -9 -8h-117v-60h48q54 0 84.5 -26.5t30.5 -71.5q0 -43 -34 -73.5t-85 -30.5q-63 0 -98 38q-8 9 -1 15l21 20q7 5 12 0q3 -3 10.5 -8.5t24.5 -12t33 -6.5q28 0 46 17t18 40q0 24 -17 39t-49 15h-77q-15 0 -15 16z" />
    <glyph glyph-name="sixinferior" unicode="&#x2086;" horiz-adv-x="324" 
d="M50 -26q0 42 19 77.5t48 57.5t52 34t42 18q8 3 12 -6l10 -23q5 -10 -9 -13q-29 -9 -67 -34.5t-49 -59.5q28 17 64 17q41 0 71.5 -26t30.5 -72q0 -43 -32.5 -73.5t-77.5 -30.5q-54 0 -84 38.5t-30 95.5zM97 -34q1 -29 19 -54t49 -25q25 0 42.5 17t17.5 40t-18 39.5
t-44 16.5q-22 0 -40 -11t-26 -23z" />
    <glyph glyph-name="seveninferior" unicode="&#x2087;" horiz-adv-x="319" 
d="M59 101q-9 0 -9 9v27q0 9 9 9h201q9 0 9 -9v-11l-143 -267q-5 -9 -13 -9h-34q-9 0 -9 7v7l132 237h-143z" />
    <glyph glyph-name="eightinferior" unicode="&#x2088;" horiz-adv-x="321" 
d="M50 -76q0 26 20 48.5t37 29.5v2q-18 8 -33.5 27t-15.5 43q0 37 29 59.5t73 22.5t73.5 -22.5t29.5 -59.5q0 -23 -15.5 -42t-34.5 -28v-2q21 -9 39.5 -30.5t18.5 -47.5q0 -37 -30.5 -60.5t-81.5 -23.5q-49 0 -79 23.5t-30 60.5zM111 71q0 -36 49 -45q50 9 50 45
q0 18 -14.5 30t-36.5 12q-20 0 -34 -12t-14 -30zM104 -73q0 -20 16.5 -32t39.5 -12q24 0 40.5 12t16.5 32q0 17 -15 31.5t-42 19.5q-26 -5 -41 -19.5t-15 -31.5z" />
    <glyph glyph-name="nineinferior" unicode="&#x2089;" horiz-adv-x="324" 
d="M50 50q0 43 32.5 73.5t77.5 30.5q54 0 84 -38.5t30 -95.5q0 -42 -19 -77.5t-48 -57.5t-52 -34t-42 -18q-8 -3 -12 6l-10 23q-5 10 9 13q29 9 67 34.5t49 59.5q-28 -17 -64 -17q-41 0 -71.5 26t-30.5 72zM99 50q0 -23 18 -39.5t44 -16.5q22 0 40 11t26 23q-1 29 -19 54
t-49 25q-25 0 -42.5 -17t-17.5 -40z" />
    <glyph glyph-name="Euro" unicode="&#x20ac;" horiz-adv-x="731" 
d="M38 253q-7 0 -12.5 5.5t-5.5 13.5v7q0 8 5.5 13.5t12.5 5.5h40q-3 24 -3 51q0 16 1 24h-38q-7 0 -12.5 5.5t-5.5 13.5v7q0 8 5.5 13.5t12.5 5.5h43q24 126 123.5 209t231.5 83q133 0 242 -93q14 -15 1 -28l-24 -24q-16 -16 -33 1q-77 72 -187 72q-99 0 -174 -62.5
t-97 -157.5h281q8 0 13.5 -5.5t5.5 -13.5v-8q0 -8 -5.5 -13t-13.5 -5h-288q-1 -8 -1 -23q0 -29 4 -52h245q8 0 13.5 -5.5t5.5 -13.5v-8q0 -8 -5.5 -13t-13.5 -5h-233q29 -84 100.5 -137t162.5 -53q58 0 100 19.5t92 57.5q12 10 24 3l29 -29q6 -5 5.5 -13t-6.5 -14
q-100 -97 -243 -97q-124 0 -220 73.5t-128 189.5h-50z" />
    <glyph glyph-name="afii61289" unicode="&#x2113;" horiz-adv-x="505" 
d="M106 148q0 30 7 72q-29 -9 -52 -13q-13 -1 -16 9l-4 22q-5 16 13 19q46 8 70 16l18 94q34 171 82 257.5t120 86.5q51 0 79.5 -35.5t28.5 -96.5q0 -84 -42.5 -154t-103.5 -113.5t-140 -73.5q-11 -48 -11 -88q0 -110 87 -110q83 0 157 45q14 9 20 -3l10 -16q6 -11 -3 -20
q-8 -7 -27 -18t-64.5 -24.5t-92.5 -13.5q-72 0 -104 44.5t-32 113.5zM176 289q100 43 163.5 116.5t63.5 173.5q0 38 -15.5 59.5t-43.5 21.5q-52 0 -88 -75.5t-66 -225.5z" />
    <glyph glyph-name="trademark" unicode="&#x2122;" horiz-adv-x="721" 
d="M331 398q-10 0 -15.5 7t-3.5 16l52 269q4 15 19 15h4q13 0 17 -11l81 -212l82 212q4 11 17 11h4q15 0 19 -15l53 -270q1 -9 -4.5 -15.5t-14.5 -6.5h-12q-15 0 -19 17l-34 165l-72 -176q-4 -9 -16 -9h-6q-14 0 -17 10l-70 175l-35 -166q-4 -16 -19 -16h-10zM158 398
q-8 0 -13.5 5.5t-5.5 13.5v234h-70q-8 0 -13.5 5.5t-5.5 13.5v11q0 7 6 13t13 6h191q8 0 13.5 -5.5t5.5 -13.5v-11q0 -19 -19 -19h-70v-234q0 -7 -6 -13t-13 -6h-13z" />
    <glyph glyph-name="Omega" unicode="&#x2126;" horiz-adv-x="780" 
d="M49 15v41q0 6 4.5 10.5t10.5 4.5h111q-68 40 -107 116t-39 165q0 150 105 254t255 104t255 -104t105 -254q0 -89 -39 -165t-106 -116h111q6 0 10.5 -4.5t4.5 -10.5v-41q0 -6 -4.5 -10.5t-10.5 -4.5h-249q-14 0 -14 15v29q0 14 17 22q92 29 151 108t59 175q0 118 -86 204
t-204 86t-203.5 -86t-85.5 -204q0 -96 59 -175t151 -108q16 -8 16 -22v-29q0 -15 -14 -15h-248q-6 0 -10.5 4.5t-4.5 10.5z" />
    <glyph glyph-name="estimated" unicode="&#x212e;" horiz-adv-x="823" 
d="M144 158q39 -57 108 -89.5t145 -32.5q115 0 214 86q11 11 23 1l12 -14q8 -10 -4 -22q-104 -98 -245 -98q-153 0 -258 104t-105 256t105.5 257t257.5 105t257.5 -105t106.5 -257q0 -24 -19 -24h-598v-167zM144 371h508v168q-42 58 -109 91t-146 33q-78 0 -144 -32
t-109 -90v-170z" />
    <glyph glyph-name="onethird" unicode="&#x2153;" horiz-adv-x="623" 
d="M103 27l343 663q6 10 17 10h16q11 0 16.5 -8.5t0.5 -18.5l-345 -663q-5 -10 -17 -10h-14q-11 0 -16.5 8.5t-0.5 18.5zM117 404q-10 0 -10 9v210l-41 -11q-9 -2 -10 4l-5 17q-1 7 3 11l70 56h28q9 0 9 -9v-278q0 -9 -9 -9h-35zM363 31q-6 6 1 11l21 20q7 4 13 -1
q39 -26 66 -26q24 0 42 12.5t18 32.5t-18.5 34t-54.5 14h-31q-10 0 -10 9v25q0 9 10 9h31q32 0 48.5 12.5t16.5 31.5q0 20 -16 32.5t-38 12.5q-32 0 -56 -24q-6 -6 -13 0l-20 18q-8 6 0 12q38 40 93 40q45 0 75 -23t30 -60q0 -24 -16 -43t-36 -27v-2q22 -8 41.5 -28.5
t19.5 -46.5q0 -37 -31.5 -61.5t-82.5 -24.5q-65 0 -103 41z" />
    <glyph glyph-name="twothirds" unicode="&#x2154;" horiz-adv-x="623" 
d="M10 404q-10 0 -10 9v14l127 133q32 35 32 56q0 18 -14.5 32.5t-42.5 14.5q-32 0 -62 -30q-6 -6 -12 0l-20 21q-6 6 0 11q4 5 12 12.5t33.5 20t51.5 12.5q52 0 80 -25t28 -64t-49 -90l-81 -83h121q9 0 9 -10v-25q0 -9 -9 -9h-194zM103 27l343 663q6 10 17 10h16
q11 0 16.5 -8.5t0.5 -18.5l-345 -663q-5 -10 -17 -10h-14q-11 0 -16.5 8.5t-0.5 18.5zM363 31q-6 6 1 11l21 20q7 4 13 -1q39 -26 66 -26q24 0 42 12.5t18 32.5t-18.5 34t-54.5 14h-31q-10 0 -10 9v25q0 9 10 9h31q32 0 48.5 12.5t16.5 31.5q0 20 -16 32.5t-38 12.5
q-32 0 -56 -24q-6 -6 -13 0l-20 18q-8 6 0 12q38 40 93 40q45 0 75 -23t30 -60q0 -24 -16 -43t-36 -27v-2q22 -8 41.5 -28.5t19.5 -46.5q0 -37 -31.5 -61.5t-82.5 -24.5q-65 0 -103 41z" />
    <glyph glyph-name="oneeighth" unicode="&#x215b;" horiz-adv-x="623" 
d="M103 27l343 663q6 10 17 10h16q11 0 16.5 -8.5t0.5 -18.5l-345 -663q-5 -10 -17 -10h-14q-11 0 -16.5 8.5t-0.5 18.5zM117 404q-10 0 -10 9v210l-41 -11q-9 -2 -10 4l-5 17q-1 7 3 11l70 56h28q9 0 9 -9v-278q0 -9 -9 -9h-35zM378 74q0 26 20 48.5t37 29.5v2
q-18 8 -33.5 27t-15.5 43q0 37 29 59.5t73 22.5t73.5 -22.5t29.5 -59.5q0 -23 -15.5 -42t-34.5 -28v-2q21 -9 39.5 -30.5t18.5 -47.5q0 -37 -30.5 -60.5t-81.5 -23.5q-49 0 -79 23.5t-30 60.5zM439 221q0 -36 49 -45q50 9 50 45q0 18 -14.5 30t-36.5 12q-20 0 -34 -12
t-14 -30zM432 77q0 -20 16.5 -32t39.5 -12q24 0 40.5 12t16.5 32q0 17 -15 31.5t-42 19.5q-26 -5 -41 -19.5t-15 -31.5z" />
    <glyph glyph-name="threeeighths" unicode="&#x215c;" horiz-adv-x="681" 
d="M156 394q-65 0 -103 41q-6 6 1 11l21 20q7 4 13 -1q39 -26 66 -26q24 0 42 12.5t18 32.5t-18.5 34t-54.5 14h-31q-10 0 -10 9v25q0 9 10 9h31q32 0 48.5 12.5t16.5 31.5q0 20 -16 32.5t-38 12.5q-32 0 -56 -24q-6 -6 -13 0l-20 18q-8 6 0 12q38 40 93 40q45 0 75 -23
t30 -60q0 -24 -16 -43t-36 -27v-2q22 -8 41.5 -28.5t19.5 -46.5q0 -37 -31.5 -61.5t-82.5 -24.5zM143 27l343 663q6 10 17 10h16q11 0 16.5 -8.5t0.5 -18.5l-345 -663q-5 -10 -17 -10h-14q-11 0 -16.5 8.5t-0.5 18.5zM418 74q0 26 20 48.5t37 29.5v2q-18 8 -33.5 27
t-15.5 43q0 37 29 59.5t73 22.5t73.5 -22.5t29.5 -59.5q0 -23 -15.5 -42t-34.5 -28v-2q21 -9 39.5 -30.5t18.5 -47.5q0 -37 -30.5 -60.5t-81.5 -23.5q-49 0 -79 23.5t-30 60.5zM479 221q0 -36 49 -45q50 9 50 45q0 18 -14.5 30t-36.5 12q-20 0 -34 -12t-14 -30zM472 77
q0 -20 16.5 -32t39.5 -12q24 0 40.5 12t16.5 32q0 17 -15 31.5t-42 19.5q-26 -5 -41 -19.5t-15 -31.5z" />
    <glyph glyph-name="fiveeighths" unicode="&#x215d;" horiz-adv-x="681" 
d="M144 27l343 663q6 10 17 10h16q11 0 16.5 -8.5t0.5 -18.5l-345 -663q-5 -10 -17 -10h-14q-11 0 -16.5 8.5t-0.5 18.5zM155 394q-63 0 -98 38q-8 9 -1 15l21 20q7 5 12 0q3 -3 10.5 -8.5t24.5 -12t33 -6.5q28 0 46 17t18 40q0 24 -17 39t-49 15h-77q-15 0 -15 16v124
q0 9 9 9h156q9 0 9 -9v-27q0 -8 -9 -8h-117v-60h48q54 0 84.5 -26.5t30.5 -71.5q0 -43 -34 -73.5t-85 -30.5zM419 74q0 26 20 48.5t37 29.5v2q-18 8 -33.5 27t-15.5 43q0 37 29 59.5t73 22.5t73.5 -22.5t29.5 -59.5q0 -23 -15.5 -42t-34.5 -28v-2q21 -9 39.5 -30.5
t18.5 -47.5q0 -37 -30.5 -60.5t-81.5 -23.5q-49 0 -79 23.5t-30 60.5zM480 221q0 -36 49 -45q50 9 50 45q0 18 -14.5 30t-36.5 12q-20 0 -34 -12t-14 -30zM473 77q0 -20 16.5 -32t39.5 -12q24 0 40.5 12t16.5 32q0 17 -15 31.5t-42 19.5q-26 -5 -41 -19.5t-15 -31.5z" />
    <glyph glyph-name="seveneighths" unicode="&#x215e;" horiz-adv-x="681" 
d="M143 27l343 663q6 10 17 10h16q11 0 16.5 -8.5t0.5 -18.5l-345 -663q-5 -10 -17 -10h-14q-11 0 -16.5 8.5t-0.5 18.5zM109 404q-9 0 -9 7v7l132 237h-143q-9 0 -9 9v27q0 9 9 9h201q9 0 9 -9v-11l-143 -267q-5 -9 -13 -9h-34zM418 74q0 26 20 48.5t37 29.5v2
q-18 8 -33.5 27t-15.5 43q0 37 29 59.5t73 22.5t73.5 -22.5t29.5 -59.5q0 -23 -15.5 -42t-34.5 -28v-2q21 -9 39.5 -30.5t18.5 -47.5q0 -37 -30.5 -60.5t-81.5 -23.5q-49 0 -79 23.5t-30 60.5zM479 221q0 -36 49 -45q50 9 50 45q0 18 -14.5 30t-36.5 12q-20 0 -34 -12
t-14 -30zM472 77q0 -20 16.5 -32t39.5 -12q24 0 40.5 12t16.5 32q0 17 -15 31.5t-42 19.5q-26 -5 -41 -19.5t-15 -31.5z" />
    <glyph glyph-name="partialdiff" unicode="&#x2202;" horiz-adv-x="570" 
d="M58 219q0 97 63.5 157t151.5 60q38 0 76 -11t57 -23l19 -11q-10 38 -36 76t-56.5 66t-64.5 51.5t-59.5 37t-40.5 18.5q-27 8 -18 29l11 24q7 16 22 10q37 -15 73.5 -34.5t85 -57t84.5 -82t61 -111.5t25 -143q0 -127 -58.5 -206t-174.5 -79q-90 0 -155.5 67.5t-65.5 161.5
zM129 215q0 -65 43.5 -112t106.5 -47q49 0 85 25t52 62.5t23.5 81t-1.5 81.5q-7 7 -20.5 18t-55 29t-82.5 18q-63 0 -107 -45.5t-44 -110.5z" />
    <glyph glyph-name="Delta" unicode="&#x2206;" horiz-adv-x="686" 
d="M48 0q-38 0 -18 39l298 666q5 9 14 9h5q9 0 14 -9l297 -668q17 -37 -18 -37h-592zM123 71h439l-217 502h-2z" />
    <glyph glyph-name="product" unicode="&#x220f;" horiz-adv-x="658" 
d="M49 15v670q0 6 4.5 10.5t10.5 4.5h529q15 0 15 -15v-670q0 -15 -15 -15h-48q-6 0 -10.5 4.5t-4.5 10.5v614h-403v-614q0 -15 -15 -15h-48q-6 0 -10.5 4.5t-4.5 10.5z" />
    <glyph glyph-name="summation" unicode="&#x2211;" horiz-adv-x="531" 
d="M49 15v20l310 322l-310 310v18q0 15 14 15h405q6 0 10.5 -4.5t4.5 -10.5v-42q0 -6 -4.5 -10.5t-10.5 -4.5h-289l240 -231q15 -15 15 -26v-27q0 -7 -15 -25l-240 -248h289q15 0 15 -14v-42q0 -6 -4.5 -10.5t-10.5 -4.5h-405q-14 0 -14 15z" />
    <glyph glyph-name="minus" unicode="&#x2212;" horiz-adv-x="518" 
d="M69 314q-7 0 -13 6t-6 13v28q0 7 6 13t13 6h381q7 0 12.5 -5.5t5.5 -13.5v-28q0 -8 -5.5 -13.5t-12.5 -5.5h-381z" />
    <glyph glyph-name="uni2215" unicode="&#x2215;" horiz-adv-x="119" 
d="M-79 10q-5 -10 -17 -10h-14q-11 0 -16.5 8.5t-0.5 18.5l343 663q6 10 17 10h16q11 0 16.5 -8.5t0.5 -18.5z" />
    <glyph glyph-name="uni2219" unicode="&#x2219;" horiz-adv-x="354" 
d="M177 204q-23 0 -40 17t-17 40q0 24 17 40.5t40 16.5q24 0 40.5 -16.5t16.5 -40.5q0 -23 -16.5 -40t-40.5 -17z" />
    <glyph glyph-name="radical" unicode="&#x221a;" horiz-adv-x="668" 
d="M210 0l-169 383q-9 17 10 17h51q10 0 13 -8l111 -261h3l248 559q4 10 15 10h149q14 0 14 -15v-35q0 -15 -14 -15h-111l-287 -635q-3 -10 -14 -10h-6q-8 0 -13 10z" />
    <glyph glyph-name="infinity" unicode="&#x221e;" horiz-adv-x="608" 
d="M189 157q-58 0 -98.5 41t-40.5 98q0 58 40.5 98.5t98.5 40.5q34 0 64.5 -18.5t49.5 -47.5q42 66 116 66q57 0 98 -40.5t41 -98.5q0 -57 -41 -98t-98 -41q-35 0 -66 18.5t-50 47.5q-19 -29 -49.5 -47.5t-64.5 -18.5zM334 296q0 -35 24 -59t59 -24q34 0 58.5 24.5
t24.5 58.5t-24.5 58.5t-58.5 24.5q-35 0 -59 -24t-24 -59zM190 213q34 0 58.5 24.5t24.5 58.5t-24.5 58.5t-58.5 24.5t-58.5 -24.5t-24.5 -58.5t24.5 -58.5t58.5 -24.5z" />
    <glyph glyph-name="integral" unicode="&#x222b;" horiz-adv-x="393" 
d="M140 -140v680q0 83 42.5 126.5t110.5 43.5q67 0 110 -41q12 -10 4 -23l-16 -26q-9 -15 -26 -1q-38 29 -73 29q-37 0 -60 -26.5t-23 -81.5v-680q0 -83 -42.5 -126.5t-110.5 -43.5q-67 0 -110 41q-12 10 -4 23l16 26q9 15 26 1q38 -29 73 -29q37 0 60 26.5t23 81.5z" />
    <glyph glyph-name="approxequal" unicode="&#x2248;" horiz-adv-x="437" 
d="M57 326l-21 16q-12 8 -2 22q2 3 5 8.5t13.5 20t22 25t30.5 19.5t39 9q39 0 82 -36q31 -25 53 -25q40 0 64 51q7 15 22 4l22 -16q12 -8 2 -22q-2 -3 -5 -8.5t-13.5 -20t-22 -25t-30.5 -19.5t-39 -9q-40 0 -82 35q-31 26 -53 26q-41 0 -65 -51q-7 -15 -22 -4zM58 122
l-22 16q-12 8 -2 22q2 3 5 8.5t13.5 20t22 25t30.5 19.5t39 9q39 0 82 -36q31 -25 53 -25q40 0 64 51q7 15 22 4l22 -16q12 -8 2 -22q-2 -3 -5 -8.5t-13.5 -20t-22 -25t-30.5 -19.5t-39 -9q-40 0 -82 35q-31 26 -53 26q-40 0 -64 -51q-7 -15 -22 -4z" />
    <glyph glyph-name="notequal" unicode="&#x2260;" horiz-adv-x="437" 
d="M122 57q-19 8 -10 24l27 59h-70q-8 0 -13.5 5.5t-5.5 13.5v31q0 8 5.5 13.5t13.5 5.5h102l67 142h-169q-8 0 -13.5 5.5t-5.5 13.5v30q0 8 5.5 13.5t13.5 5.5h200l36 76q3 7 10.5 10t14.5 -1l6 -3q8 -3 10.5 -10t-1.5 -14l-27 -58h50q8 0 13.5 -5.5t5.5 -13.5v-30
q0 -8 -5.5 -13.5t-13.5 -5.5h-82l-66 -142h148q8 0 13.5 -5.5t5.5 -13.5v-31q0 -8 -5.5 -13.5t-13.5 -5.5h-180l-36 -77q-5 -17 -25 -9z" />
    <glyph glyph-name="lessequal" unicode="&#x2264;" horiz-adv-x="451" 
d="M29 382q-10 7 -10 17v5q0 9 10 16l384 194q18 9 18 -12v-41q0 -10 -8 -15l-303 -144l303 -141q8 -5 8 -15v-41q0 -9 -5.5 -12.5t-12.5 0.5zM35 61q-7 0 -13 5.5t-6 13.5v28q0 8 6 13.5t13 5.5h381q7 0 12.5 -5.5t5.5 -13.5v-28q0 -8 -5.5 -13.5t-12.5 -5.5h-381z" />
    <glyph glyph-name="greaterequal" unicode="&#x2265;" horiz-adv-x="451" 
d="M37 193q-7 -4 -12.5 -0.5t-5.5 12.5v41q0 10 8 15l303 141l-303 144q-8 5 -8 15v41q0 21 18 12l384 -194q10 -7 10 -16v-5q0 -10 -10 -17zM34 61q-7 0 -12.5 5.5t-5.5 13.5v28q0 8 5.5 13.5t12.5 5.5h381q7 0 13 -5.5t6 -13.5v-28q0 -8 -6 -13.5t-13 -5.5h-381z" />
    <glyph glyph-name="lozenge" unicode="&#x25ca;" horiz-adv-x="686" 
d="M105 306q-14 19 -18 29.5t-2 25.5q1 19 22 47l221 297q5 9 14 9h5q9 0 14 -9l220 -296q23 -33 22 -56q-1 -18 -22 -50l-220 -295q-4 -8 -14 -8h-5q-8 0 -14 8zM343 95h2l188 261l-188 263h-2l-188 -263z" />
    <glyph glyph-name="uniF8FF" unicode="&#xf8ff;" horiz-adv-x="599" 
d="M50 30v640q0 30 30 30h439q30 0 30 -30v-640q0 -30 -30 -30h-439q-30 0 -30 30zM262 314q0 -12 14 -12h36q15 0 15 13v26q0 16 16.5 32t36 28.5t36 36.5t16.5 53q0 48 -35.5 79.5t-89.5 31.5q-24 0 -46.5 -6.5t-37 -15t-25.5 -17.5t-16 -15l-5 -7q-8 -12 0 -18l22 -22
q9 -6 17 0q1 1 7.5 7t9.5 9t11.5 8.5t15.5 8.5t18 5.5t22 2.5q29 0 45 -15t16 -37q0 -21 -15.5 -39t-34 -30t-34 -32.5t-15.5 -45.5v-29zM245 156q0 -20 14.5 -34t33.5 -14q20 0 34.5 14t14.5 34t-14.5 34t-34.5 14q-19 0 -33.5 -14t-14.5 -34z" />
    <glyph glyph-name="CR" horiz-adv-x="0" 
 />
    <glyph glyph-name="grave.cap" horiz-adv-x="302" 
d="M227 781l-161 67q-14 5 -6 21l18 36q3 6 12.5 6.5t13.5 -3.5l150 -84q12 -6 6 -19l-10 -22q-5 -10 -23 -2z" />
    <glyph glyph-name="acute.cap" horiz-adv-x="302" 
d="M70 783l-10 22q-6 13 6 19l150 84q4 4 13.5 3.5t12.5 -6.5l18 -36q8 -16 -6 -21l-161 -67q-18 -8 -23 2z" />
    <glyph glyph-name="circumflex.cap" horiz-adv-x="373" 
d="M60 775l-14 18q-7 10 6 19l120 94q5 4 13 4t13 -4l120 -94q13 -9 6 -19q-2 -2 -5.5 -8t-6 -9t-6.5 -6.5t-8.5 -3t-10.5 4.5l-102 70l-102 -68q-15 -10 -23 2z" />
    <glyph glyph-name="caron.cap" horiz-adv-x="373" 
d="M185 768q-8 0 -13 4l-120 94q-13 9 -6 19l14 18q8 12 23 2l102 -68l102 70q15 10 23 -2l14 -20q2 -3 2 -6t-1 -5.5t-4 -5.5t-5.5 -4.5t-6 -4t-4.5 -3.5l-107 -84q-5 -4 -13 -4z" />
    <glyph glyph-name="caron.alt" horiz-adv-x="373" 
d="M175 711q66 0 66 -90q0 -56 -26.5 -106t-57.5 -79q-14 -12 -24 -2l-14 14q-10 10 6 24q62 56 62 126q-4 -1 -12 -1q-23 0 -40 17t-17 40q0 24 17 40.5t40 16.5z" />
    <glyph glyph-name="tilde.cap" horiz-adv-x="380" 
d="M64 795l-18 9q-11 6 -4 22q0 1 6 15t11.5 23t15.5 21t25 18.5t34 6.5q26 0 46.5 -18.5t36 -37t27.5 -18.5q30 0 45 51q5 16 23 8l16 -8q10 -5 4 -26q-28 -81 -89 -81q-24 0 -45.5 19t-37.5 37.5t-27 18.5q-12 0 -22 -9t-13.5 -17.5t-8.5 -23.5q-6 -20 -25 -10z" />
    <glyph glyph-name="dieresis.cap" horiz-adv-x="474" 
d="M342 792q-20 0 -33.5 14t-13.5 33q0 20 13.5 34t33.5 14t34 -14t14 -34t-14 -33.5t-34 -13.5zM131 792q-19 0 -33 14t-14 33q0 20 13.5 34t33.5 14t34 -14t14 -34t-14 -33.5t-34 -13.5z" />
    <glyph glyph-name="macron.cap" horiz-adv-x="414" 
d="M79 821q-8 0 -13.5 5t-5.5 13v21q0 19 19 19h256q19 0 19 -19v-21q0 -8 -5.5 -13t-13.5 -5h-256z" />
    <glyph glyph-name="breve.cap" horiz-adv-x="346" 
d="M173 771q-52 0 -90 32.5t-45 81.5q-4 20 14 20h21q13 0 19 -17q8 -29 30 -46.5t51 -17.5q27 0 48.5 18.5t30.5 45.5q6 17 19 17h23q18 0 14 -20q-8 -49 -46 -81.5t-89 -32.5z" />
    <glyph glyph-name="ring.cap" horiz-adv-x="290" 
d="M145 758q-46 0 -77.5 31.5t-31.5 77.5t31.5 77.5t77.5 31.5q45 0 77 -31.5t32 -77.5t-32 -77.5t-77 -31.5zM145 806q24 0 41.5 18.5t17.5 42.5t-17.5 41.5t-41.5 17.5t-42.5 -17.5t-18.5 -41.5t18.5 -42.5t42.5 -18.5z" />
    <glyph glyph-name="hungarumlaut.cap" horiz-adv-x="392" 
d="M231 769q-8 0 -14.5 6t-4.5 13l50 141q6 19 19 19h39q14 0 19 -7.5t-1 -17.5l-78 -139q-8 -15 -18 -15h-11zM65 769q-8 0 -14.5 6t-4.5 13l50 141q6 19 19 19h39q14 0 19 -7.5t-1 -17.5l-78 -139q-8 -15 -18 -15h-11z" />
    <glyph glyph-name="dotaccent.cap" horiz-adv-x="219" 
d="M108 796q-23 0 -40 17t-17 40q0 24 17 40.5t40 16.5q24 0 40.5 -16.5t16.5 -40.5q0 -23 -16.5 -40t-40.5 -17z" />
    <glyph glyph-name="cedilla.cap" horiz-adv-x="247" 
d="M57 0h54v-53q47 -6 76 -33.5t29 -69.5q0 -44 -30.5 -74t-74.5 -30q-46 0 -76 35q-14 16 0 26l14 11q14 10 23 0q17 -18 41 -18q20 0 32 13t12 34t-15 35.5t-30 19t-38 8.5q-17 3 -17 20v76z" />
    <glyph glyph-name="ogonek.cap" horiz-adv-x="276" 
d="M112 11h51q-7 -5 -17 -14.5t-26.5 -38t-16.5 -57.5q0 -24 17 -40.5t40 -16.5q25 0 55 16q6 3 12 -1t6 -13v-25q0 -9 -14 -17q-30 -15 -70 -15q-45 0 -75.5 26t-30.5 76q0 34 17.5 64t34.5 43z" />
    <glyph glyph-name="commaaccent" horiz-adv-x="292" 
d="M137 -92q66 0 66 -90q0 -56 -26.5 -106t-57.5 -79q-14 -12 -24 -2l-14 14q-10 10 6 24q62 56 62 126q-4 -1 -12 -1q-23 0 -40 17t-17 40q0 24 17 40.5t40 16.5z" />
    <glyph glyph-name="commaaccent.alt" horiz-adv-x="292" 
d="M137 -92q66 0 66 -90q0 -56 -26.5 -106t-57.5 -79q-14 -12 -24 -2l-14 14q-10 10 6 24q62 56 62 126q-4 -1 -12 -1q-23 0 -40 17t-17 40q0 24 17 40.5t40 16.5z" />
    <glyph glyph-name="commaaccent.cap" horiz-adv-x="292" 
d="M137 -92q66 0 66 -90q0 -56 -26.5 -106t-57.5 -79q-14 -12 -24 -2l-14 14q-10 10 6 24q62 56 62 126q-4 -1 -12 -1q-23 0 -40 17t-17 40q0 24 17 40.5t40 16.5z" />
    <glyph glyph-name="brokenbar.case" horiz-adv-x="364" 
d="M179 513q-8 0 -13.5 5.5t-5.5 12.5v330q0 8 5.5 13.5t13.5 5.5h7q8 0 13 -5.5t5 -13.5v-330q0 -7 -5.5 -12.5t-13.5 -5.5h-6zM160 169q0 8 5.5 13.5t13.5 5.5h7q8 0 13 -5.5t5 -13.5v-331q0 -7 -5.5 -12.5t-13.5 -5.5h-6q-8 0 -13.5 5.5t-5.5 12.5v331z" />
    <glyph glyph-name="zero.tf" horiz-adv-x="604" 
d="M302 -10q-116 0 -179.5 92.5t-63.5 257.5t63.5 257.5t179.5 92.5t179.5 -92.5t63.5 -257.5t-63.5 -257.5t-179.5 -92.5zM302 55q83 0 127.5 74t44.5 211q0 136 -45 210.5t-127 74.5t-127 -74.5t-45 -210.5q0 -137 44.5 -211t127.5 -74z" />
    <glyph glyph-name="one.tf" horiz-adv-x="604" 
d="M128 0q-8 0 -13.5 5t-5.5 13v22q0 19 19 19h154v497l-99 -77q-13 -10 -23 1l-19 21q-9 11 2 22l167 157h27q7 0 12.5 -5.5t5.5 -13.5v-602h122q19 0 19 -19v-22q0 -8 -5.5 -13t-13.5 -5h-349z" />
    <glyph glyph-name="two.tf" horiz-adv-x="604" 
d="M83 19v30l245 265q101 110 101 181q0 50 -34.5 88.5t-105.5 38.5q-72 0 -142 -75q-13 -13 -27 0l-20 19q-12 14 -1 26q3 4 8.5 10.5t24 23.5t39 30t53 23.5t65.5 10.5q102 0 159 -56t57 -137q0 -60 -31 -109.5t-94 -117.5l-192 -205h294q8 0 13.5 -5.5t5.5 -13.5v-27
q0 -7 -5.5 -13t-13.5 -6h-380q-8 0 -13.5 5.5t-5.5 13.5z" />
    <glyph glyph-name="three.tf" horiz-adv-x="604" 
d="M82 79q-12 14 1 24l27 23q15 11 27 -5q9 -11 23.5 -23.5t50.5 -29t75 -16.5q60 0 102 34t42 91q0 56 -44.5 93.5t-132.5 37.5h-56q-19 0 -19 22v24q0 22 21 22h55q77 0 118 34.5t41 86.5q0 58 -38 92.5t-93 34.5q-74 0 -131 -65q-12 -14 -26 -2l-24 19q-14 12 0 26
q3 4 8.5 9.5t24 21t38 27t49.5 21t61 9.5q92 0 149 -50t57 -133q0 -53 -32 -96.5t-71 -61.5v-3q45 -19 82.5 -61.5t37.5 -100.5q0 -84 -60.5 -139t-161.5 -55q-123 0 -201 89z" />
    <glyph glyph-name="four.tf" horiz-adv-x="604" 
d="M50 154q-8 0 -13.5 5.5t-5.5 13.5v37l379 475q6 6 15 6h20q8 0 13.5 -5.5t5.5 -13.5l1 -457h81q8 0 13.5 -5t5.5 -13v-22q0 -8 -5.5 -13.5t-13.5 -5.5h-81v-137q0 -7 -5.5 -13t-13.5 -6h-34q-8 0 -13.5 6t-5.5 13v135h-343zM115 216h282v348z" />
    <glyph glyph-name="five.tf" horiz-adv-x="604" 
d="M101 73q-17 19 -2 34l11.5 11l11.5 11q15 13 25 -1q9 -13 22.5 -26.5t49 -30.5t76.5 -17q69 0 113 50.5t44 113.5q0 62 -40.5 103t-116.5 41h-152q-14 0 -22.5 11t-8.5 24v264q0 8 5.5 13.5t13.5 5.5h302q8 0 13.5 -5.5t5.5 -13.5v-29q0 -8 -5.5 -13.5t-13.5 -5.5h-254
v-184h116q112 0 171.5 -55.5t59.5 -154.5q0 -95 -66 -162t-166 -67q-124 0 -193 83z" />
    <glyph glyph-name="six.tf" horiz-adv-x="604" 
d="M79 275q0 76 25 143t61 111.5t84.5 82t85 57t73.5 34.5q15 6 22 -10l11 -24q9 -21 -18 -29q-15 -5 -40.5 -18.5t-59.5 -37t-64.5 -51.5t-56.5 -66t-36 -76q7 5 20.5 12.5t53.5 20t78 12.5q88 0 151.5 -60t63.5 -157q0 -94 -65.5 -161.5t-155.5 -67.5q-116 0 -174.5 79
t-58.5 206zM312 56q63 0 106.5 47t43.5 112t-44 110.5t-107 45.5q-41 0 -80.5 -16.5t-58.5 -32.5l-19 -16q-9 -38 -1.5 -81.5t23.5 -81t52 -62.5t85 -25z" />
    <glyph glyph-name="seven.tf" horiz-adv-x="604" 
d="M154 19v11l279 583h-327q-8 0 -13.5 5.5t-5.5 13.5v29q0 7 5.5 13t13.5 6h402q8 0 13.5 -6t5.5 -13v-7l-292 -628q-12 -26 -33 -26h-29q-7 0 -13 6t-6 13z" />
    <glyph glyph-name="eight.tf" horiz-adv-x="604" 
d="M77 183q0 58 38.5 103t82.5 64v3q-40 18 -71.5 59.5t-31.5 94.5q0 82 58 132.5t148 50.5q91 0 149.5 -50.5t58.5 -132.5q0 -53 -31.5 -94.5t-71.5 -59.5v-3q44 -19 82.5 -64t38.5 -103q0 -84 -61.5 -138.5t-165.5 -54.5q-101 0 -162 54.5t-61 138.5zM302 385
q66 7 99.5 38.5t33.5 80.5q0 56 -38.5 91t-98.5 35q-55 0 -92 -35.5t-37 -90.5q0 -49 33 -81t100 -38zM152 176q0 -56 43.5 -91t104.5 -35q66 0 109 34t43 92q0 49 -41 88.5t-109 46.5q-69 -7 -109.5 -46.5t-40.5 -88.5z" />
    <glyph glyph-name="nine.tf" horiz-adv-x="604" 
d="M162 17q-9 21 18 29q15 5 40.5 18.5t59.5 37t64.5 51.5t56.5 66t36 76q-7 -5 -20.5 -12.5t-53.5 -20t-78 -12.5q-88 0 -151.5 60t-63.5 157q0 94 65.5 161.5t155.5 67.5q116 0 174.5 -79t58.5 -206q0 -76 -25 -143t-61 -111.5t-84.5 -82t-85 -57t-73.5 -34.5
q-15 -6 -22 10zM292 315q41 0 80.5 16.5t58.5 32.5l19 16q9 38 1.5 81.5t-23.5 81t-52 62.5t-85 25q-63 0 -106.5 -47t-43.5 -112t44 -110.5t107 -45.5z" />
    <glyph glyph-name="zero.denom" horiz-adv-x="348" 
d="M50 147q0 75 32.5 116.5t91.5 41.5t91.5 -41.5t32.5 -116.5q0 -74 -32.5 -115.5t-91.5 -41.5t-91.5 41.5t-32.5 115.5zM174 38q33 0 51 28.5t18 80.5q0 53 -18 81.5t-51 28.5t-51 -28.5t-18 -81.5q0 -52 18 -80.5t51 -28.5z" />
    <glyph glyph-name="one.denom" horiz-adv-x="211" 
d="M107 9v210l-41 -11q-9 -2 -10 4l-5 17q-1 7 3 11l70 56h28q9 0 9 -9v-278q0 -9 -9 -9h-35q-10 0 -10 9z" />
    <glyph glyph-name="two.denom" horiz-adv-x="313" 
d="M50 9v14l127 133q32 35 32 56q0 18 -14.5 32.5t-42.5 14.5q-32 0 -62 -30q-6 -6 -12 0l-20 21q-6 6 0 11q4 5 12 12.5t33.5 20t51.5 12.5q52 0 80 -25t28 -64t-49 -90l-81 -83h121q9 0 9 -10v-25q0 -9 -9 -9h-194q-10 0 -10 9z" />
    <glyph glyph-name="three.denom" horiz-adv-x="320" 
d="M53 31q-6 6 1 11l21 20q7 4 13 -1q39 -26 66 -26q24 0 42 12.5t18 32.5t-18.5 34t-54.5 14h-31q-10 0 -10 9v25q0 9 10 9h31q32 0 48.5 12.5t16.5 31.5q0 20 -16 32.5t-38 12.5q-32 0 -56 -24q-6 -6 -13 0l-20 18q-8 6 0 12q38 40 93 40q45 0 75 -23t30 -60
q0 -24 -16 -43t-36 -27v-2q22 -8 41.5 -28.5t19.5 -46.5q0 -37 -31.5 -61.5t-82.5 -24.5q-65 0 -103 41z" />
    <glyph glyph-name="four.denom" horiz-adv-x="361" 
d="M59 59q-9 0 -9 9v29l172 196q3 3 8 3h21q10 0 10 -9v-185h41q9 0 9 -8v-26q0 -8 -9 -8h-41v-51q0 -9 -10 -9h-32q-10 0 -10 9v50h-150zM105 103h106v118z" />
    <glyph glyph-name="five.denom" horiz-adv-x="323" 
d="M57 28q-8 9 -1 15l21 20q7 5 12 0q3 -3 10.5 -8.5t24.5 -12t33 -6.5q28 0 46 17t18 40q0 24 -17 39t-49 15h-77q-15 0 -15 16v124q0 9 9 9h156q9 0 9 -9v-27q0 -8 -9 -8h-117v-60h48q54 0 84.5 -26.5t30.5 -71.5q0 -43 -34 -73.5t-85 -30.5q-63 0 -98 38z" />
    <glyph glyph-name="six.denom" horiz-adv-x="324" 
d="M50 124q0 42 19 77.5t48 57.5t52 34t42 18q8 3 12 -6l10 -23q5 -10 -9 -13q-29 -9 -67 -34.5t-49 -59.5q28 17 64 17q41 0 71.5 -26t30.5 -72q0 -43 -32.5 -73.5t-77.5 -30.5q-54 0 -84 38.5t-30 95.5zM97 116q1 -29 19 -54t49 -25q25 0 42.5 17t17.5 40t-18 39.5
t-44 16.5q-22 0 -40 -11t-26 -23z" />
    <glyph glyph-name="seven.denom" horiz-adv-x="319" 
d="M70 7v7l132 237h-143q-9 0 -9 9v27q0 9 9 9h201q9 0 9 -9v-11l-143 -267q-5 -9 -13 -9h-34q-9 0 -9 7z" />
    <glyph glyph-name="eight.denom" horiz-adv-x="321" 
d="M50 74q0 26 20 48.5t37 29.5v2q-18 8 -33.5 27t-15.5 43q0 37 29 59.5t73 22.5t73.5 -22.5t29.5 -59.5q0 -23 -15.5 -42t-34.5 -28v-2q21 -9 39.5 -30.5t18.5 -47.5q0 -37 -30.5 -60.5t-81.5 -23.5q-49 0 -79 23.5t-30 60.5zM160 176q50 9 50 45q0 18 -14.5 30t-36.5 12
q-20 0 -34 -12t-14 -30q0 -36 49 -45zM104 77q0 -20 16.5 -32t39.5 -12q24 0 40.5 12t16.5 32q0 17 -15 31.5t-42 19.5q-26 -5 -41 -19.5t-15 -31.5z" />
    <glyph glyph-name="nine.denom" horiz-adv-x="324" 
d="M91 12q-5 10 9 13q29 9 67 34.5t49 59.5q-28 -17 -64 -17q-41 0 -71.5 26t-30.5 72q0 43 32.5 73.5t77.5 30.5q54 0 84 -38.5t30 -95.5q0 -42 -19 -77.5t-48 -57.5t-52 -34t-42 -18q-8 -3 -12 6zM161 144q22 0 40 11t26 23q-1 29 -19 54t-49 25q-25 0 -42.5 -17
t-17.5 -40t18 -39.5t44 -16.5z" />
    <glyph glyph-name="zero.num" horiz-adv-x="348" 
d="M174 394q-59 0 -91.5 41.5t-32.5 115.5q0 75 32.5 116.5t91.5 41.5t91.5 -41.5t32.5 -116.5q0 -74 -32.5 -115.5t-91.5 -41.5zM174 442q33 0 51 28.5t18 80.5q0 53 -18 81.5t-51 28.5t-51 -28.5t-18 -81.5q0 -52 18 -80.5t51 -28.5z" />
    <glyph glyph-name="one.num" horiz-adv-x="211" 
d="M117 404q-10 0 -10 9v210l-41 -11q-9 -2 -10 4l-5 17q-1 7 3 11l70 56h28q9 0 9 -9v-278q0 -9 -9 -9h-35z" />
    <glyph glyph-name="two.num" horiz-adv-x="313" 
d="M60 404q-10 0 -10 9v14l127 133q32 35 32 56q0 18 -14.5 32.5t-42.5 14.5q-32 0 -62 -30q-6 -6 -12 0l-20 21q-6 6 0 11q4 5 12 12.5t33.5 20t51.5 12.5q52 0 80 -25t28 -64t-49 -90l-81 -83h121q9 0 9 -10v-25q0 -9 -9 -9h-194z" />
    <glyph glyph-name="three.num" horiz-adv-x="320" 
d="M156 394q-65 0 -103 41q-6 6 1 11l21 20q7 4 13 -1q39 -26 66 -26q24 0 42 12.5t18 32.5t-18.5 34t-54.5 14h-31q-10 0 -10 9v25q0 9 10 9h31q32 0 48.5 12.5t16.5 31.5q0 20 -16 32.5t-38 12.5q-32 0 -56 -24q-6 -6 -13 0l-20 18q-8 6 0 12q38 40 93 40q45 0 75 -23
t30 -60q0 -24 -16 -43t-36 -27v-2q22 -8 41.5 -28.5t19.5 -46.5q0 -37 -31.5 -61.5t-82.5 -24.5z" />
    <glyph glyph-name="four.num" horiz-adv-x="361" 
d="M219 404q-10 0 -10 9v50h-150q-9 0 -9 9v29l172 196q3 3 8 3h21q10 0 10 -9v-185h41q9 0 9 -8v-26q0 -8 -9 -8h-41v-51q0 -9 -10 -9h-32zM105 507h106v118z" />
    <glyph glyph-name="five.num" horiz-adv-x="323" 
d="M155 394q-63 0 -98 38q-8 9 -1 15l21 20q7 5 12 0q3 -3 10.5 -8.5t24.5 -12t33 -6.5q28 0 46 17t18 40q0 24 -17 39t-49 15h-77q-15 0 -15 16v124q0 9 9 9h156q9 0 9 -9v-27q0 -8 -9 -8h-117v-60h48q54 0 84.5 -26.5t30.5 -71.5q0 -43 -34 -73.5t-85 -30.5z" />
    <glyph glyph-name="six.num" horiz-adv-x="324" 
d="M164 394q-54 0 -84 38.5t-30 95.5q0 42 19 77.5t48 57.5t52 34t42 18q8 3 12 -6l10 -23q5 -10 -9 -13q-29 -9 -67 -34.5t-49 -59.5q28 17 64 17q41 0 71.5 -26t30.5 -72q0 -43 -32.5 -73.5t-77.5 -30.5zM165 441q25 0 42.5 17t17.5 40t-18 39.5t-44 16.5q-22 0 -40 -11
t-26 -23q1 -29 19 -54t49 -25z" />
    <glyph glyph-name="seven.num" horiz-adv-x="319" 
d="M79 404q-9 0 -9 7v7l132 237h-143q-9 0 -9 9v27q0 9 9 9h201q9 0 9 -9v-11l-143 -267q-5 -9 -13 -9h-34z" />
    <glyph glyph-name="eight.num" horiz-adv-x="321" 
d="M159 394q-49 0 -79 23.5t-30 60.5q0 26 20 48.5t37 29.5v2q-18 8 -33.5 27t-15.5 43q0 37 29 59.5t73 22.5t73.5 -22.5t29.5 -59.5q0 -23 -15.5 -42t-34.5 -28v-2q21 -9 39.5 -30.5t18.5 -47.5q0 -37 -30.5 -60.5t-81.5 -23.5zM160 580q50 9 50 45q0 18 -14.5 30
t-36.5 12q-20 0 -34 -12t-14 -30q0 -36 49 -45zM160 437q24 0 40.5 12t16.5 32q0 17 -15 31.5t-42 19.5q-26 -5 -41 -19.5t-15 -31.5q0 -20 16.5 -32t39.5 -12z" />
    <glyph glyph-name="nine.num" horiz-adv-x="324" 
d="M113 387q-8 -3 -12 6l-10 23q-5 10 9 13q29 9 67 34.5t49 59.5q-28 -17 -64 -17q-41 0 -71.5 26t-30.5 72q0 43 32.5 73.5t77.5 30.5q54 0 84 -38.5t30 -95.5q0 -42 -19 -77.5t-48 -57.5t-52 -34t-42 -18zM161 548q22 0 40 11t26 23q-1 29 -19 54t-49 25q-25 0 -42.5 -17
t-17.5 -40t18 -39.5t44 -16.5z" />
    <glyph glyph-name="a.alt" 
d="M410 381v-362q0 -7 -6 -13t-13 -6h-21q-13 0 -17 16l-6 27l-5.5 -5.5t-16 -13t-26 -16.5t-34 -12.5t-41.5 -5.5q-76 0 -129 61.5t-53 148.5t54 148.5t135 61.5q32 0 61 -10.5t42 -21.5l13 -10l7 18q5 14 19 14h18q7 0 13 -6t6 -13zM340 119v179q-4 5 -12 13.5t-34.5 22
t-55.5 13.5q-58 0 -92 -43t-34 -104t33 -104t86 -43q20 0 38.5 7t31 16.5t22 19t13.5 16.5z" />
    <glyph glyph-name="agrave.alt" 
d="M410 381v-362q0 -7 -6 -13t-13 -6h-21q-13 0 -17 16l-6 27l-5.5 -5.5t-16 -13t-26 -16.5t-34 -12.5t-41.5 -5.5q-76 0 -129 61.5t-53 148.5t54 148.5t135 61.5q32 0 61 -10.5t42 -21.5l13 -10l7 18q5 14 19 14h18q7 0 13 -6t6 -13zM340 119v179q-4 5 -12 13.5t-34.5 22
t-55.5 13.5q-58 0 -92 -43t-34 -104t33 -104t86 -43q20 0 38.5 7t31 16.5t22 19t13.5 16.5zM329 559l-161 67q-14 5 -6 21l18 36q3 6 12.5 6.5t13.5 -3.5l150 -84q12 -6 6 -19l-10 -22q-5 -10 -23 -2z" />
    <glyph glyph-name="aacute.alt" 
d="M410 381v-362q0 -7 -6 -13t-13 -6h-21q-13 0 -17 16l-6 27l-5.5 -5.5t-16 -13t-26 -16.5t-34 -12.5t-41.5 -5.5q-76 0 -129 61.5t-53 148.5t54 148.5t135 61.5q32 0 61 -10.5t42 -21.5l13 -10l7 18q5 14 19 14h18q7 0 13 -6t6 -13zM340 119v179q-4 5 -12 13.5t-34.5 22
t-55.5 13.5q-58 0 -92 -43t-34 -104t33 -104t86 -43q20 0 38.5 7t31 16.5t22 19t13.5 16.5zM164 561l-10 22q-6 13 6 19l150 84q4 4 13.5 3.5t12.5 -6.5l18 -36q8 -16 -6 -21l-161 -67q-18 -8 -23 2z" />
    <glyph glyph-name="acircumflex.alt" 
d="M410 381v-362q0 -7 -6 -13t-13 -6h-21q-13 0 -17 16l-6 27l-5.5 -5.5t-16 -13t-26 -16.5t-34 -12.5t-41.5 -5.5q-76 0 -129 61.5t-53 148.5t54 148.5t135 61.5q32 0 61 -10.5t42 -21.5l13 -10l7 18q5 14 19 14h18q7 0 13 -6t6 -13zM340 119v179q-4 5 -12 13.5t-34.5 22
t-55.5 13.5q-58 0 -92 -43t-34 -104t33 -104t86 -43q20 0 38.5 7t31 16.5t22 19t13.5 16.5zM117 555l-14 18q-7 10 6 19l120 94q5 4 13 4t13 -4l120 -94q13 -9 6 -19q-2 -2 -5.5 -8t-6 -9t-6.5 -6.5t-8.5 -3t-10.5 4.5l-102 70l-102 -68q-15 -10 -23 2z" />
    <glyph glyph-name="atilde.alt" 
d="M410 381v-362q0 -7 -6 -13t-13 -6h-21q-13 0 -17 16l-6 27l-5.5 -5.5t-16 -13t-26 -16.5t-34 -12.5t-41.5 -5.5q-76 0 -129 61.5t-53 148.5t54 148.5t135 61.5q32 0 61 -10.5t42 -21.5l13 -10l7 18q5 14 19 14h18q7 0 13 -6t6 -13zM340 119v179q-4 5 -12 13.5t-34.5 22
t-55.5 13.5q-58 0 -92 -43t-34 -104t33 -104t86 -43q20 0 38.5 7t31 16.5t22 19t13.5 16.5zM120 575l-18 9q-11 6 -4 22q0 1 6 15t11.5 23t15.5 21t25 18.5t34 6.5q26 0 46.5 -18.5t36 -37t27.5 -18.5q30 0 45 51q5 16 23 8l16 -8q10 -5 4 -26q-28 -81 -89 -81
q-24 0 -45.5 19t-37.5 37.5t-27 18.5q-12 0 -22 -9t-13.5 -17.5t-8.5 -23.5q-6 -20 -25 -10z" />
    <glyph glyph-name="adieresis.alt" 
d="M410 381v-362q0 -7 -6 -13t-13 -6h-21q-13 0 -17 16l-6 27l-5.5 -5.5t-16 -13t-26 -16.5t-34 -12.5t-41.5 -5.5q-76 0 -129 61.5t-53 148.5t54 148.5t135 61.5q32 0 61 -10.5t42 -21.5l13 -10l7 18q5 14 19 14h18q7 0 13 -6t6 -13zM340 119v179q-4 5 -12 13.5t-34.5 22
t-55.5 13.5q-58 0 -92 -43t-34 -104t33 -104t86 -43q20 0 38.5 7t31 16.5t22 19t13.5 16.5zM345 585q-19 0 -33 13.5t-14 33.5t13.5 34t33.5 14t34 -14t14 -34t-14 -33.5t-34 -13.5zM152 585q-20 0 -33.5 13.5t-13.5 33.5t13.5 34t33.5 14t34 -14t14 -34t-14 -33.5
t-34 -13.5z" />
    <glyph glyph-name="amacron.alt" 
d="M410 381v-362q0 -7 -6 -13t-13 -6h-21q-13 0 -17 16l-6 27l-5.5 -5.5t-16 -13t-26 -16.5t-34 -12.5t-41.5 -5.5q-76 0 -129 61.5t-53 148.5t54 148.5t135 61.5q32 0 61 -10.5t42 -21.5l13 -10l7 18q5 14 19 14h18q7 0 13 -6t6 -13zM340 119v179q-4 5 -12 13.5t-34.5 22
t-55.5 13.5q-58 0 -92 -43t-34 -104t33 -104t86 -43q20 0 38.5 7t31 16.5t22 19t13.5 16.5zM113 583q-8 0 -13.5 5t-5.5 13v21q0 19 19 19h256q19 0 19 -19v-21q0 -8 -5.5 -13t-13.5 -5h-256z" />
    <glyph glyph-name="abreve.alt" 
d="M410 381v-362q0 -7 -6 -13t-13 -6h-21q-13 0 -17 16l-6 27l-5.5 -5.5t-16 -13t-26 -16.5t-34 -12.5t-41.5 -5.5q-76 0 -129 61.5t-53 148.5t54 148.5t135 61.5q32 0 61 -10.5t42 -21.5l13 -10l7 18q5 14 19 14h18q7 0 13 -6t6 -13zM340 119v179q-4 5 -12 13.5t-34.5 22
t-55.5 13.5q-58 0 -92 -43t-34 -104t33 -104t86 -43q20 0 38.5 7t31 16.5t22 19t13.5 16.5zM246 531q-52 0 -90 32.5t-45 81.5q-4 20 14 20h21q13 0 19 -17q8 -29 30 -46.5t51 -17.5q27 0 48.5 18.5t30.5 45.5q6 17 19 17h23q18 0 14 -20q-8 -49 -46 -81.5t-89 -32.5z" />
    <glyph glyph-name="aring.alt" 
d="M410 381v-362q0 -7 -6 -13t-13 -6h-21q-13 0 -17 16l-6 27l-5.5 -5.5t-16 -13t-26 -16.5t-34 -12.5t-41.5 -5.5q-76 0 -129 61.5t-53 148.5t54 148.5t135 61.5q32 0 61 -10.5t42 -21.5l13 -10l7 18q5 14 19 14h18q7 0 13 -6t6 -13zM340 119v179q-4 5 -12 13.5t-34.5 22
t-55.5 13.5q-58 0 -92 -43t-34 -104t33 -104t86 -43q20 0 38.5 7t31 16.5t22 19t13.5 16.5zM240 492q-46 0 -77.5 31.5t-31.5 77.5t31.5 77.5t77.5 31.5q45 0 77 -31.5t32 -77.5t-32 -77.5t-77 -31.5zM240 540q24 0 41.5 18.5t17.5 42.5t-17.5 41.5t-41.5 17.5t-42.5 -17.5
t-18.5 -41.5t18.5 -42.5t42.5 -18.5z" />
    <glyph glyph-name="aringacute.alt" 
d="M410 381v-362q0 -7 -6 -13t-13 -6h-21q-13 0 -17 16l-6 27l-5.5 -5.5t-16 -13t-26 -16.5t-34 -12.5t-41.5 -5.5q-76 0 -129 61.5t-53 148.5t54 148.5t135 61.5q32 0 61 -10.5t42 -21.5l13 -10l7 18q5 14 19 14h18q7 0 13 -6t6 -13zM340 119v179q-4 5 -12 13.5t-34.5 22
t-55.5 13.5q-58 0 -92 -43t-34 -104t33 -104t86 -43q20 0 38.5 7t31 16.5t22 19t13.5 16.5zM243 436q-46 0 -77.5 31.5t-31.5 77.5t31.5 77.5t77.5 31.5q45 0 77 -31.5t32 -77.5t-32 -77.5t-77 -31.5zM243 484q24 0 41.5 18.5t17.5 42.5t-17.5 41.5t-41.5 17.5t-42.5 -17.5
t-18.5 -41.5t18.5 -42.5t42.5 -18.5zM149 665l-10 22q-6 13 6 19l150 84q4 4 13.5 3.5t12.5 -6.5l18 -36q8 -16 -6 -21l-161 -67q-18 -8 -23 2z" />
    <glyph glyph-name="aogonek.alt" 
d="M410 381v-362q0 -7 -5 -12.5t-12 -6.5q-47 -44 -47 -99q0 -24 17 -40.5t40 -16.5q25 0 55 16q6 3 12 -1t6 -13v-25q0 -9 -14 -17q-30 -15 -70 -15q-45 0 -75.5 26t-30.5 76q0 69 68 120l-7 32l-5.5 -5.5t-16 -13t-26 -16.5t-34 -12.5t-41.5 -5.5q-76 0 -129 61.5
t-53 148.5t54 148.5t135 61.5q32 0 61 -10.5t42 -21.5l13 -10l7 18q5 14 19 14h18q7 0 13 -6t6 -13zM340 119v179q-4 5 -12 13.5t-34.5 22t-55.5 13.5q-58 0 -92 -43t-34 -104t33 -104t86 -43q20 0 38.5 7t31 16.5t22 19t13.5 16.5z" />
    <glyph glyph-name="parenleft.case" horiz-adv-x="344" 
d="M294 -48q-46 2 -85.5 23t-74.5 64.5t-55.5 121.5t-20.5 184t20.5 184t55.5 121.5t74.5 64.5t85.5 23q17 2 18 -10l2 -27q3 -15 -10 -17q-92 -18 -134 -103t-42 -236t42 -236t134 -103q13 -2 10 -17l-2 -27q-1 -12 -18 -10z" />
    <glyph glyph-name="parenright.case" horiz-adv-x="344" 
d="M40 6q92 18 134 103t42 236t-42 236t-134 103q-13 2 -10 17l2 27q1 12 18 10q46 -2 85.5 -23t74.5 -64.5t55.5 -121.5t20.5 -184t-20.5 -184t-55.5 -121.5t-74.5 -64.5t-85.5 -23q-17 -2 -18 10l-2 27q-3 15 10 17z" />
    <glyph glyph-name="hyphen.case" horiz-adv-x="413" 
d="M102 310q-8 0 -13.5 5t-5.5 13v19q0 19 19 19h209q19 0 19 -19v-19q0 -8 -5.5 -13t-13.5 -5h-209z" />
    <glyph glyph-name="bracketleft.case" horiz-adv-x="327" 
d="M146 -117h137q8 0 13.5 -5.5t5.5 -12.5v-26q0 -7 -6 -13t-13 -6h-186q-7 0 -13 6t-6 13v962q0 7 6 13t13 6h186q7 0 13 -6t6 -13v-25q0 -8 -5.5 -13.5t-13.5 -5.5h-137v-874z" />
    <glyph glyph-name="bracketright.case" horiz-adv-x="327" 
d="M44 -117h137v874h-137q-8 0 -13.5 5.5t-5.5 13.5v25q0 7 5.5 13t13.5 6h186q8 0 13.5 -6t5.5 -13v-962q0 -7 -5.5 -13t-13.5 -6h-186q-8 0 -13.5 6t-5.5 13v26q0 7 5.5 12.5t13.5 5.5z" />
    <glyph glyph-name="braceleft.case" horiz-adv-x="399" 
d="M109 49v161q0 30 -23.5 52t-45.5 26q-15 2 -15 17v31q0 13 15 15q22 4 45.5 26t23.5 52v161q0 65 23.5 114t61 75t78 38.5t82.5 12.5q20 0 20 -17v-19q0 -16 -13 -18q-77 -11 -130 -60t-53 -126v-133q0 -35 -7.5 -60.5t-22 -40t-24.5 -21t-25 -12.5v-7q15 -6 25 -12.5
t24.5 -21t22 -40t7.5 -60.5v-133q0 -77 53 -125.5t130 -59.5q13 -2 13 -17v-20q0 -7 -6 -12t-14 -5q-42 0 -82.5 12.5t-78 38.5t-61 74.5t-23.5 113.5z" />
    <glyph glyph-name="bar.case" horiz-adv-x="198" 
d="M77 -162v1023q0 8 5.5 13.5t13.5 5.5h7q8 0 13 -5.5t5 -13.5v-1023q0 -7 -5.5 -12.5t-13.5 -5.5h-6q-8 0 -13.5 5.5t-5.5 12.5z" />
    <glyph glyph-name="braceright.case" horiz-adv-x="399" 
d="M221 182q0 35 7.5 60.5t22 40t24.5 21t25 12.5v7q-15 6 -25 12.5t-24.5 21t-22 40t-7.5 60.5v133q0 77 -53 126t-130 60q-13 2 -13 18v19q0 17 20 17q42 0 82.5 -12.5t78 -38.5t61 -75t23.5 -114v-161q0 -30 23.5 -52t45.5 -26q15 -2 15 -15v-31q0 -15 -15 -17
q-22 -4 -45.5 -26t-23.5 -52v-161q0 -65 -23.5 -113.5t-61 -74.5t-78 -38.5t-82.5 -12.5q-8 0 -14 5t-6 12v20q0 15 13 17q77 11 130 59.5t53 125.5v133z" />
    <glyph glyph-name="guilsinglleft.case" horiz-adv-x="252" 
d="M145 159l-104 155q-8 11 0 24l109 148q9 12 18 12h14q13 0 17 -9.5t-2 -21.5l-74 -139l71 -147q6 -12 1.5 -21t-16.5 -9h-19q-9 0 -15 8z" />
    <glyph glyph-name="guilsinglright.case" horiz-adv-x="252" 
d="M72 151q-12 0 -16.5 9t1.5 21l71 147l-74 139q-6 12 -2 21.5t17 9.5h14q10 0 18 -12l109 -148q8 -13 0 -24l-104 -155q-6 -8 -15 -8h-19z" />
    <glyph glyph-name="guillemotleft.case" horiz-adv-x="415" 
d="M204 314q-8 11 0 24l109 148q7 12 18 12h14q13 0 17 -9.5t-2 -21.5l-74 -139l71 -147q6 -12 2 -21t-17 -9h-19q-9 0 -15 8zM145 159l-104 155q-8 11 0 24l109 148q7 12 18 12h14q13 0 17 -9.5t-2 -21.5l-74 -139l71 -147q6 -12 2 -21t-17 -9h-19q-9 0 -15 8z" />
    <glyph glyph-name="guillemotright.case" horiz-adv-x="415" 
d="M220 181l71 147l-74 139q-6 12 -2 21.5t17 9.5h14q11 0 18 -12l109 -148q8 -13 0 -24l-104 -155q-6 -8 -15 -8h-19q-13 0 -17 9t2 21zM72 151q-13 0 -17 9t2 21l71 147l-74 139q-6 12 -2 21.5t17 9.5h14q11 0 18 -12l109 -148q8 -13 0 -24l-104 -155q-6 -8 -15 -8h-19z
" />
    <glyph glyph-name="endash.case" horiz-adv-x="577" 
d="M104 313q-8 0 -13.5 5t-5.5 13v11q0 19 19 19h369q19 0 19 -19v-11q0 -8 -5.5 -13t-13.5 -5h-369z" />
    <glyph glyph-name="emdash.case" horiz-adv-x="797" 
d="M104 313q-8 0 -13.5 5t-5.5 13v11q0 19 19 19h589q19 0 19 -19v-11q0 -8 -5.5 -13t-13.5 -5h-589z" />
    <glyph glyph-name="bullet.case" horiz-adv-x="354" 
d="M175 209q-43 0 -74 31t-31 74q0 45 31 77t74 32q45 0 77 -32t32 -77q0 -43 -32 -74t-77 -31z" />
    <glyph glyph-name="periodcentered.case" horiz-adv-x="229" 
d="M114 294q-23 0 -40 17t-17 40q0 24 17 40.5t40 16.5q24 0 40.5 -16.5t16.5 -40.5q0 -23 -16.5 -40t-40.5 -17z" />
    </font>
</defs>
</svg>
